Operación Avalancha (2016) 1080p Latino

1.994 vistas
1 estrella2 estrellas3 estrellas4 estrellas5 estrellas (Ninguna valoración todavía)
Cargando…

Información de Operación Avalancha (2016) 1080p Latino

Datos de la película

  • Calidad: 1080p
  • Audio: Español Latino AC3 5.1 iTUNES - Ingles AC3 5.1 BLURAY
  • Subtitulos: Español Latino SRT
  • Resolución: 1920X1012
  • Formato: MKV
  • Codec: H.264
  • Encoder: Dpelis
  • Mediainfo: Clic para Mostrar Datos Ver
  • Format                                   : Matroska
    Format version                           : Version 4 / Version 2
    File size                                : 2.83 GiB
    Duration                                 : 1 h 34 min
    Overall bit rate                         : 4 300 kb/s
    Movie name                               : dpeliculashdmega.org
    Encoded date                             : UTC 2017-11-02 00:34:14 / UTC 2017-11-01T20:14:29Z
    Writing application                      : mkvmerge v6.7.0 ('Back to the Ground') 32bit built on Jan  8 2014 15:03:17
    Writing library                          : libebml v1.3.0 + libmatroska v1.4.1 / Lavf57.7.2

    Video
    ID                                       : 1
    Format                                   : AVC
    Format/Info                              : Advanced Video Codec
    Format profile                           : [email protected]
    Format settings                          : CABAC / 4 Ref Frames
    Format settings, CABAC                   : Yes
    Format settings, RefFrames               : 4 frames
    Codec ID                                 : V_MPEG4/ISO/AVC
    Duration                                 : 1 h 34 min
    Bit rate                                 : 3 500 kb/s
    Width                                    : 1 920 pixels
    Height                                   : 1 012 pixels
    Display aspect ratio                     : 1.897
    Frame rate mode                          : Constant
    Frame rate                               : 23.976 (24000/1001) FPS
    Color space                              : YUV
    Chroma subsampling                       : 4:2:0
    Bit depth                                : 8 bits
    Scan type                                : Progressive
    Bits/(Pixel*Frame)                       : 0.075
    Stream size                              : 2.22 GiB (79%)
    Title                                    : Operación Avalancha (2016) 1080p Latino
    Writing library                          : x264 core 148 r2708 86b7198
    Encoding settings                        : cabac=1 / ref=4 / deblock=1:0:0 / analyse=0x3:0x113 / me=umh / subme=8 / psy=1 / psy_rd=1.00:0.00 / mixed_ref=1 / me_range=16 / chroma_me=1 / trellis=1 / 8x8dct=1 / cqm=0 / deadzone=21,11 / fast_pskip=1 / chroma_qp_offset=-2 / threads=32 / lookahead_threads=5 / sliced_threads=0 / nr=0 / decimate=1 / interlaced=0 / bluray_compat=0 / constrained_intra=0 / bframes=3 / b_pyramid=2 / b_adapt=2 / b_bias=0 / direct=3 / weightb=1 / open_gop=0 / weightp=2 / keyint=240 / keyint_min=24 / scenecut=40 / intra_refresh=0 / rc_lookahead=50 / rc=abr / mbtree=1 / bitrate=3500 / ratetol=1.0 / qcomp=0.60 / qpmin=0 / qpmax=69 / qpstep=4 / vbv_maxrate=62500 / vbv_bufsize=78125 / nal_hrd=none / filler=0 / ip_ratio=1.40 / aq=1:1.00
    Language                                 : Spanish
    Default                                  : Yes
    Forced                                   : No
    Color range                              : Limited
    Color primaries                          : BT.709
    Transfer characteristics                 : BT.709
    Matrix coefficients                      : BT.709

    Audio #1
    ID                                       : 2
    Format                                   : AC-3
    Format/Info                              : Audio Coding 3
    Format settings, Endianness              : Big
    Codec ID                                 : A_AC3
    Duration                                 : 1 h 34 min
    Bit rate mode                            : Constant
    Bit rate                                 : 448 kb/s
    Channel(s)                               : 6 channels
    Channel positions                        : Front: L C R, Side: L R, LFE
    Sampling rate                            : 48.0 kHz
    Frame rate                               : 31.250 FPS (1536 SPF)
    Bit depth                                : 16 bits
    Compression mode                         : Lossy
    Delay relative to video                  : -5 ms
    Stream size                              : 301 MiB (10%)
    Title                                    : Latino-AC3
    Language                                 : Spanish
    Service kind                             : Complete Main
    Default                                  : Yes
    Forced                                   : No

    Audio #2
    ID                                       : 3
    Format                                   : AC-3
    Format/Info                              : Audio Coding 3
    Format settings, Endianness              : Big
    Codec ID                                 : A_AC3
    Duration                                 : 1 h 34 min
    Bit rate mode                            : Constant
    Bit rate                                 : 384 kb/s
    Channel(s)                               : 6 channels
    Channel positions                        : Front: L C R, Side: L R, LFE
    Sampling rate                            : 48.0 kHz
    Frame rate                               : 31.250 FPS (1536 SPF)
    Bit depth                                : 16 bits
    Compression mode                         : Lossy
    Delay relative to video                  : -5 ms
    Stream size                              : 258 MiB (9%)
    Title                                    : Ingles-AC3
    Language                                 : English
    Service kind                             : Complete Main
    Default                                  : No
    Forced                                   : No

    Text
    ID                                       : 4
    Format                                   : UTF-8
    Codec ID                                 : S_TEXT/UTF8
    Codec ID/Info                            : UTF-8 Plain Text
    Language                                 : Spanish
    Default                                  : No
    Forced                                   : No

    Menu
    00:00:00.000                             : :Chapter 1
    00:07:38.875                             : :Chapter 2
    00:19:46.185                             : :Chapter 3
    00:24:05.486                             : :Chapter 4
    00:33:29.883                             : :Chapter 5
    00:40:55.495                             : :Chapter 6
    00:49:55.826                             : :Chapter 7
    01:03:00.485                             : :Chapter 8
    01:08:03.871                             : :Chapter 9
    01:13:50.509                             : :Chapter 10
    01:19:10.120                             : :Chapter 11
    01:25:58.779                             : :Chapter 12

  • Peso: 2.83 GiB

Sinopsis

Estamos en 1967, y la Guerra Fría está caliente, caliente, con la carrera espacial como punta de lanza. La CIA cree que un espía ruso se ha infiltrado en la NASA para sabotear el programa Apollo, y tienen la “brillante” idea de mandar a unos agentes del departamento de audiovisual para que se hagan pasar por documentalistas y desenmascaren al topo. Lo que descubrirán, sin embargo, será algo mucho peor.

Ficha técnica

  • Titulo original: Operation Avalanche
  • Fecha de lanzamiento: 29-07-2016 (United States of America)
  • Director: Matt Johnson
  • Género: Suspense
  • Puntuación: 0.0 0 votos
  • Duración:
    1 h 34 min

Video trailer de la película

Enlaces de descarga

Rip de Bluray

Descargar Operación Avalancha (2016) 1080p Latino




Aportes de DPeliculasHDmega la pass es:dpeliculashdmega.org Aportes de CinemaniaHD la pass es:cinemaniahdd.com
Guardado en : Suspense

Películas relacionadas

  • Poseído (2018) WEB-DL 1080p Latino

    2018
    Poseído (2018) WEB-DL 1080p Latino

    0.0 1h 27m 2018

    Mary está embarazada de gemelos, pero, en el parto, uno de los bebés muere. Diagnosticada con depresión...

    Director: Brandon Christensen

    Género: Suspense

    Actores: Sheila McCarthy

  • Painless (2017) WEB-DL 1080p Latino

    2017
    Painless (2017) WEB-DL 1080p Latino

    0.0 1h 21m 2017

    Henry Long busca desesperadamente una cura para la afección que lo deja incapaz de sentir dolor físico.

    Director: Jordan Horowitz

    Género: Drama

    Actores: Valeria Sistrunk

  • Distorted (2018) 1080p Latino

    2018
    Distorted (2018) 1080p Latino

    5.0 1h 30m 2018

    Ricci interpreta a una joven con trastorno bipolar que empieza a sospechar que el propietario de un moderno...

    Director: Rob W. King

    Género: Acción

    Actores: Zan Klein

Comentarios 4
  • seba - 02 noviembre, 2017

    las caratulas negras ahora son con mas calidad ??

    • Dpelis2 pelis2 - 02 noviembre, 2017

      Siempre se tratan de hacer con la máxima calidad posible…

  • Raul - 02 noviembre, 2017

    Gracias podrias subir apollo 11

    • Raul - 02 noviembre, 2017

      Disculpa era Apollo 18