×

¿Problemas para descargar con Mozilla, EDGE? Deshabilita la opción "Abrir vinculos en una pestaña nueva" tal como lo muestra ésta imagen.

Onward (2020) WEB-DL 4K-HDR 2160p Latino

2.802 vistas

Información de Onward (2020) WEB-DL 4K-HDR 2160p Latino

Datos de la película

  • Calidad: 4K HDR
  • Audio: Español Latino AC3 2.0 WEB-DL - Ingles AC3 5.1 WEB-DL
  • Subtitulos: Español Latino SRT- FORZADOS SRT
  • Resolución: 3840x2160
  • Formato: MKV
  • Codec: H.264
  • Encoder: cinemaniahdd
  • Mediainfo: Clic para Mostrar Datos Ver
  • Onward (2020) WEB-DL 4K-HDR 2160p Latino.mkv
    Format                      : Matroska
    Format version              : Version 4
    File size                   : 18.3 GiB
    Duration                    : 1 h 42 min
    Overall bit rate            : 25.6 Mb/s
    Movie name                  : Unidos (2020) - CinemaniaHDD.Net
    Encoded date                : UTC 2020-03-29 19:11:13
    Writing application         : mkvmerge v42.0.0 ('Overtime') 64-bit
    Writing library             : libebml v1.3.10 + libmatroska v1.5.2

    Video
    ID                          : 1
    Format                      : HEVC
    Format/Info                 : High Efficiency Video Coding
    Commercial name             : HDR10
    Format profile              : Main 10@L5.1@Main
    Codec ID                    : V_MPEGH/ISO/HEVC
    Duration                    : 1 h 42 min
    Bit rate                    : 24.7 Mb/s
    Width                       : 3 840 pixels
    Height                      : 2 160 pixels
    Display aspect ratio        : 16:9
    Frame rate mode             : Constant
    Frame rate                  : 23.976 (24000/1001) FPS
    Color space                 : YUV
    Chroma subsampling          : 4:2:0 (Type 2)
    Bit depth                   : 10 bits
    Bits/(Pixel*Frame)          : 0.124
    Stream size                 : 17.7 GiB (96%)
    Title                       : CinemaniaHDD
    Default                     : Yes
    Forced                      : No
    Color range                 : Limited
    Color primaries             : BT.2020
    Transfer characteristics    : PQ
    Matrix coefficients         : BT.2020 non-constant
    Mastering display color pri : BT.2020
    Mastering display luminance : min: 0.0001 cd/m2, max: 1000 cd/m2
    Maximum Content Light Level : 810 cd/m2
    Maximum Frame-Average Light : 287 cd/m2

    Audio #1
    ID                          : 2
    Format                      : AC-3
    Format/Info                 : Audio Coding 3
    Commercial name             : Dolby Digital
    Codec ID                    : A_AC3
    Duration                    : 1 h 42 min
    Bit rate mode               : Constant
    Bit rate                    : 256 kb/s
    Channel(s)                  : 2 channels
    Channel layout              : L R
    Sampling rate               : 48.0 kHz
    Frame rate                  : 31.250 FPS (1536 SPF)
    Bit depth                   : 16 bits
    Compression mode            : Lossy
    Stream size                 : 187 MiB (1%)
    Title                       : Español latino [CinemaniaHDD]
    Language                    : Spanish
    Service kind                : Complete Main
    Default                     : Yes
    Forced                      : No

    Audio #2
    ID                          : 3
    Format                      : E-AC-3
    Format/Info                 : Enhanced AC-3
    Commercial name             : Dolby Digital Plus
    Codec ID                    : A_EAC3
    Duration                    : 1 h 42 min
    Bit rate mode               : Constant
    Bit rate                    : 640 kb/s
    Channel(s)                  : 6 channels
    Channel layout              : L R C LFE Ls Rs
    Sampling rate               : 48.0 kHz
    Frame rate                  : 31.250 FPS (1536 SPF)
    Compression mode            : Lossy
    Stream size                 : 469 MiB (2%)
    Title                       : Inglés [CinemaniaHDD]
    Language                    : English
    Service kind                : Complete Main
    Default                     : No
    Forced                      : No

    Text #1
    ID                          : 4
    Format                      : UTF-8
    Codec ID                    : S_TEXT/UTF8
    Codec ID/Info               : UTF-8 Plain Text
    Duration                    : 53 min 45 s
    Bit rate                    : 0 b/s
    Count of elements           : 10
    Stream size                 : 122 Bytes (0%)
    Title                       : Forzados [CinemaniaHDD]
    Language                    : Spanish
    Default                     : Yes
    Forced                      : Yes

    Text #2
    ID                          : 5
    Format                      : UTF-8
    Codec ID                    : S_TEXT/UTF8
    Codec ID/Info               : UTF-8 Plain Text
    Duration                    : 1 h 31 min
    Bit rate                    : 66 b/s
    Count of elements           : 1387
    Stream size                 : 44.5 KiB (0%)
    Title                       : Español latino [CinemaniaHDD]
    Language                    : Spanish
    Default                     : No
    Forced                      : No

    Text #3
    ID                          : 6
    Format                      : UTF-8
    Codec ID                    : S_TEXT/UTF8
    Codec ID/Info               : UTF-8 Plain Text
    Duration                    : 1 h 35 min
    Bit rate                    : 75 b/s
    Count of elements           : 1904
    Stream size                 : 53.0 KiB (0%)
    Title                       : Inglés [CinemaniaHDD]
    Language                    : English
    Default                     : No
    Forced                      : No

    Menu
    00:00:00.000                : en:Studio Logo
    00:00:49.000                : en:Long ago
    00:03:04.000                : en:Title Sequence
    00:03:09.000                : en:Ian's morning
    00:05:03.000                : en:Officer Bronco comes to Ligjtfoots
    00:07:03.000                : en:Ian meet Dad's friend
    00:08:14.000                : en:Making a list
    00:09:34.000                : en:Ian starts his day
    00:12:44.000                : en:Ian misses his Dad
    00:14:53.000                : en:A gift from Dad
    00:19:17.000                : en:Ian is at his room
    00:20:38.000                : en:Barley comes up with something
    00:23:46.000                : en:Barley drives his car
    00:25:34.000                : en:Learning magic
    00:27:25.000                : en:The boys look for the Manticore
    00:31:21.000                : en:The Manticore comes back
    00:32:49.000                : en:Laurel worries about the boys
    00:36:33.000                : en:Guinevere gets a trouble
    00:39:34.000                : en:Ian tries magic again
    00:42:48.000                : en:The Manticore talks to Laurel
    00:44:00.000                : en:Ian drives Guinevere
    00:47:48.000                : en:The spell wears off
    00:51:43.000                : en:Barley argues with Ian
    00:54:59.000                : en:Grecklin of the Pawn shop
    00:56:07.000                : en:Bronco calls Laurel
    00:57:24.000                : en:Raven's Point
    01:03:06.000                : en:Bronco chases the boys
    01:07:05.000                : en:The boys follow the birds
    01:08:49.000                : en:Ian likes the spell
    01:10:06.000                : en:Laurel encounters Pixie Dusters
    01:11:12.000                : en:Barley talks about Dad
    01:13:30.000                : en:The boys are in dangerous
    01:15:58.000                : en:Back where they started
    01:17:59.000                : en:Barley cannot give it up
    01:20:26.000                : en:It's curse
    01:22:44.000                : en:I am a mighty warrior
    01:24:26.000                : en:Ian's decision
    01:26:59.000                : en:What Ian see
    01:30:07.000                : en:Ian back to his school
    01:32:53.000                : en:End Credits

     

  • Peso: 18.3 GiB

Sinopsis

Ambientada en un mundo suburbano de fantasía, Unidos, de Disney y Pixar, nos presenta a dos hermanos elfos adolescentes (voces en inglés de Chris Pratt y Tom Holland) que se embarcan en una extraordinaria aventura para descubrir si aún queda un poco de magia allí afuera. La nueva película original de Pixar Animation Studios es dirigida por Dan Scanlon y producida por Kori Rae, el equipo detrás de Monsters University.

Ficha técnica

Video trailer de la película

Enlaces de descarga

Rip de Bluray

Descargar Onward (2020) WEB-DL 4K-HDR 2160p Latino




Aportes de DPeliculasHDmega la pass es:dpeliculashdmega.org Aportes de CinemaniaHD la pass es:cinemaniahdd.com

Películas relacionadas

  • Shotgun Wedding (2022) AMZN WEB-DL 1080p Latino

    Shotgun Wedding (2022) AMZN WEB-DL 1080p Latino

    2022
    Shotgun Wedding (2022) AMZN WEB-DL 1080p Latino

    1h 41m 2022

    Darcy y Tom reúnen a sus familias para la boda de destino definitiva, pero cuando toman como rehenes...

    Director: Jason Moore

    Género: Acción

    Actores: Steve Coulter

  • M3GAN (2023) AMZN WEB-DL 4K UHD HDR Latino

    M3GAN (2023) AMZN WEB-DL 4K UHD HDR Latino

    2022
    M3GAN (2023) AMZN WEB-DL 4K UHD HDR Latino

    1h 42m 2022

    Descargar M3GAN (2023) AMZN WEB-DL 4K UHD HDR Latino. Cuando Gemma se convierte en la cuidadora de su...

    Director: Stephen W. Moore

    Género: 4K HDR

    Actores: Violet McGraw

  • M3GAN (2022) MA WEB-DL 1080p Latino

    M3GAN (2022) MA WEB-DL 1080p Latino

    2022
    M3GAN (2022) MA WEB-DL 1080p Latino

    1h 42m 2022

    Descargar M3GAN (2022) MA WEB-DL 1080p Latino. Cuando Gemma se convierte en la cuidadora de su sobrina...

    Director: Stephen W. Moore

    Género: Ciencia ficción

    Actores: Violet McGraw

  • Mar de sangre (2022) WEB-DL 1080p Latino

    Mar de sangre (2022) WEB-DL 1080p Latino

    2022
    Mar de sangre (2022) WEB-DL 1080p Latino

    1h 27m 2022

    Descargar Mar de sangre (2022) WEB-DL 1080p Latino. Un grupo de amigos que disfrutan de un fin de semana...

    Director: James Nunn

    Género: Acción

    Actores: Thomas Michael Flynn

descargar Onward (2020) WEB-DL 4K-HDR 2160p Latino 4K HDR 1080p gratis, Onward (2020) WEB-DL 4K-HDR 2160p Latino 4K HDR mega 1 link, Onward (2020) WEB-DL 4K-HDR 2160p Latino 4K HDR pelicula completa, descargar Onward (2020) WEB-DL 4K-HDR 2160p Latino 4K HDR gratis en mega.

Onward (2020) WEB-DL 4K-HDR 2160p Latino pelicula full hd, Onward (2020) WEB-DL 4K-HDR 2160p Latino mega latino, Onward (2020) WEB-DL 4K-HDR 2160p Latino 4k latino, Onward (2020) WEB-DL 4K-HDR 2160p Latino pelicula completa, Onward (2020) WEB-DL 4K-HDR 2160p Latino descargar gratis, descargar Onward (2020) WEB-DL 4K-HDR 2160p Latino pelicula latino, Onward (2020) WEB-DL 4K-HDR 2160p Latino 1 link mega, Onward (2020) WEB-DL 4K-HDR 2160p Latino 1 link google drive, Onward (2020) WEB-DL 4K-HDR 2160p Latino hd 1080p latino.
Comentarios 0