×

¿Problemas para descargar con Mozilla, EDGE? Deshabilita la opción "Abrir vinculos en una pestaña nueva" tal como lo muestra ésta imagen.

Onward (2020) REMUX 4K HDR Latino – CMHDD

44 vistas

Información de Onward (2020) REMUX 4K HDR Latino – CMHDD

Datos de la película

  • Calidad: 4K HDR
  • Audio: Se especifica abajo de la Sinopsis
  • Subtitulos: Español Latino PGS
  • Resolución: 3840x2160p
  • Formato: MKV
  • Codec: H.264
  • Encoder: Dracarys
  • Mediainfo: Clic para Mostrar Datos Ver
  • Format                      : Matroska
    Format version              : Version 4
    File size                   : 35.7 GiB
    Duration                    : 1 h 42 min
    Overall bit rate mode       : Variable
    Overall bit rate            : 50.0 Mb/s
    Movie name                  : Onward (2020) REMUX 4K HDR Latino - CMHDD
    Encoded date                : UTC 2022-05-15 18:56:46
    Writing application         : mkvmerge v17.0.0 ('Be Ur Friend') 64-bit
    Writing library             : libebml v1.3.5 + libmatroska v1.4.8

    Video
    ID                          : 1
    Format                      : HEVC
    Format/Info                 : High Efficiency Video Coding
    Format profile              : Main 10@L5.1@High
    HDR format                  : SMPTE ST 2086, HDR10 compatible
    Codec ID                    : V_MPEGH/ISO/HEVC
    Duration                    : 1 h 42 min
    Bit rate                    : 40.2 Mb/s
    Width                       : 3 840 pixels
    Height                      : 2 160 pixels
    Display aspect ratio        : 16:9
    Frame rate mode             : Constant
    Frame rate                  : 23.976 (23976/1000) FPS
    Original frame rate         : 23.976 (24000/1001) FPS
    Color space                 : YUV
    Chroma subsampling          : 4:2:0 (Type 2)
    Bit depth                   : 10 bits
    Bits/(Pixel*Frame)          : 0.202
    Stream size                 : 28.7 GiB (80%)
    Writing library             : ATEME Titan File 3.9.0 (4.9.0.0)        
    Default                     : Yes
    Forced                      : No
    Color range                 : Limited
    Color primaries             : BT.2020
    Transfer characteristics    : PQ
    Matrix coefficients         : BT.2020 non-constant
    Mastering display color pri : Display P3
    Mastering display luminance : min: 0.0000 cd/m2, max: 1000 cd/m2

    Audio #1
    ID                          : 2
    Format                      : MLP FBA 16-ch
    Format/Info                 : Meridian Lossless Packing FBA with 16-channel presentation
    Commercial name             : Dolby TrueHD with Dolby Atmos
    Codec ID                    : A_TRUEHD
    Duration                    : 1 h 42 min
    Bit rate mode               : Variable
    Bit rate                    : 7 019 kb/s
    Maximum bit rate            : 10.9 Mb/s
    Channel(s)                  : 8 channels
    Channel layout              : L R C LFE Ls Rs Lb Rb
    Sampling rate               : 48.0 kHz
    Frame rate                  : 1 200.000 FPS (40 SPF)
    Compression mode            : Lossless
    Stream size                 : 5.02 GiB (14%)
    Language                    : English
    Default                     : No
    Forced                      : No
    Number of dynamic objects   : 13
    Bed channel count           : 1 channel
    Bed channel configuration   : LFE

    Audio #2
    ID                          : 3
    Format                      : AC-3
    Format/Info                 : Audio Coding 3
    Commercial name             : Dolby Digital
    Codec ID                    : A_AC3
    Duration                    : 1 h 42 min
    Bit rate mode               : Constant
    Bit rate                    : 640 kb/s
    Channel(s)                  : 6 channels
    Channel layout              : L R C LFE Ls Rs
    Sampling rate               : 48.0 kHz
    Frame rate                  : 31.250 FPS (1536 SPF)
    Compression mode            : Lossy
    Stream size                 : 469 MiB (1%)
    Language                    : English
    Service kind                : Complete Main
    Default                     : No
    Forced                      : No

    Audio #3
    ID                          : 4
    Format                      : E-AC-3
    Format/Info                 : Enhanced AC-3
    Commercial name             : Dolby Digital Plus
    Format profile              : Blu-ray Disc
    Codec ID                    : A_EAC3
    Duration                    : 1 h 42 min
    Bit rate mode               : Constant
    Bit rate                    : 1 024 kb/s
    Channel(s)                  : 6 channels
    Channel(s)_Original         : 8 channels
    ChannelLayout_Original      : L R C LFE Ls Rs Lrs Rrs
    Sampling rate               : 48.0 kHz
    Frame rate                  : 31.250 FPS (1536 SPF)
    Compression mode            : Lossy
    Stream size                 : 750 MiB (2%)
    Language                    : English
    Service kind                : Complete Main
    Default                     : No
    Forced                      : No

    Audio #4
    ID                          : 5
    Format                      : E-AC-3
    Format/Info                 : Enhanced AC-3
    Commercial name             : Dolby Digital Plus
    Format profile              : Blu-ray Disc
    Codec ID                    : A_EAC3
    Duration                    : 1 h 42 min
    Bit rate mode               : Constant
    Bit rate                    : 1 024 kb/s
    Channel(s)                  : 6 channels
    Channel(s)_Original         : 8 channels
    ChannelLayout_Original      : L R C LFE Ls Rs Lrs Rrs
    Sampling rate               : 48.0 kHz
    Frame rate                  : 31.250 FPS (1536 SPF)
    Compression mode            : Lossy
    Stream size                 : 750 MiB (2%)
    Language                    : Spanish
    Service kind                : Complete Main
    Default                     : Yes
    Forced                      : No

    Text
    ID                          : 6
    Format                      : PGS
    Muxing mode                 : zlib
    Codec ID                    : S_HDMV/PGS
    Codec ID/Info               : Picture based subtitle format used on BDs/HD-DVDs
    Duration                    : 1 h 41 min
    Bit rate                    : 36.7 kb/s
    Count of elements           : 2788
    Stream size                 : 26.6 MiB (0%)
    Language                    : Spanish
    Default                     : No
    Forced                      : No

    Menu
    00:00:00.000                : en:Chapter 1
    00:02:30.024                : en:Chapter 2
    00:07:06.384                : en:Chapter 3
    00:08:14.327                : en:Chapter 4
    00:12:45.014                : en:Chapter 5
    00:14:53.725                : en:Chapter 6
    00:19:21.034                : en:Chapter 7
    00:23:46.049                : en:Chapter 8
    00:25:34.741                : en:Chapter 9
    00:26:11.110                : en:Chapter 10
    00:27:25.435                : en:Chapter 11
    00:30:02.133                : en:Chapter 12
    00:32:49.133                : en:Chapter 13
    00:34:43.622                : en:Chapter 14
    00:36:40.781                : en:Chapter 15
    00:40:41.980                : en:Chapter 16
    00:42:48.732                : en:Chapter 17
    00:44:02.139                : en:Chapter 18
    00:45:41.112                : en:Chapter 19
    00:47:49.157                : en:Chapter 20
    00:52:01.367                : en:Chapter 21
    00:55:12.141                : en:Chapter 22
    00:57:23.939                : en:Chapter 23
    01:02:23.322                : en:Chapter 24
    01:04:02.963                : en:Chapter 25
    01:07:13.070                : en:Chapter 26
    01:08:49.040                : en:Chapter 27
    01:10:06.159                : en:Chapter 28
    01:11:12.267                : en:Chapter 29
    01:13:13.054                : en:Chapter 30
    01:15:58.720                : en:Chapter 31
    01:17:37.026                : en:Chapter 32
    01:20:26.320                : en:Chapter 33
    01:25:01.262                : en:Chapter 34
    01:26:59.588                : en:Chapter 35
    01:30:10.779                : en:Chapter 36
    01:32:51.898                : en:Chapter 37

  • Peso: 35.7 GiB

Sinopsis

Ambientado en un mundo de fantasía suburbana, dos hermanos elfos adolescentes, Ian y Barley Lightfood, se embarcan en una aventura en la que se proponen descubrir si existe aún algo de magia en el mundo que les permita pasar un último día con su padre, que falleció cuando ellos eran aún muy pequeños como para poder recordarlo.

 

Latino; E-AC3 7.1  –  Inglés; True HD 7.1

Ficha técnica

Video trailer de la película

Enlaces de descarga

Rip de Bluray

Descargar Onward (2020) REMUX 4K HDR Latino – CMHDD


Aportes de DPeliculasHDmega la pass es:dpeliculashdmega.org Aportes de CinemaniaHD la pass es:cinemaniahdd.com

Películas relacionadas

Onward (2020) REMUX 4K HDR Latino – CMHDD pelicula full hd, Onward (2020) REMUX 4K HDR Latino – CMHDD mega latino, Onward (2020) REMUX 4K HDR Latino – CMHDD 4k latino, Onward (2020) REMUX 4K HDR Latino – CMHDD pelicula completa, Onward (2020) REMUX 4K HDR Latino – CMHDD descargar gratis, descargar Onward (2020) REMUX 4K HDR Latino – CMHDD pelicula latino, Onward (2020) REMUX 4K HDR Latino – CMHDD 1 link mega, Onward (2020) REMUX 4K HDR Latino – CMHDD 1 link google drive, Onward (2020) REMUX 4K HDR Latino – CMHDD hd 1080p latino.
Comentarios 0