Onward: Unidos (2020) PLACEBO Full HD 1080p Latino

204 vistas
1 estrella2 estrellas3 estrellas4 estrellas5 estrellas (1 votos, promedio: 5,00 de 5)
Cargando...

Información de Onward: Unidos (2020) PLACEBO Full HD 1080p Latino

Datos de la película

  • Calidad: Full 1080p
  • Audio: Español Latino AC3 5.1 BLURAY - Ingles DTS-HD Master 7.1 BLURAY
  • Subtitulos: Español Latino PGS - Ingles PGS
  • Resolución: 1920x1080p
  • Formato: MKV
  • Codec: H.264
  • Encoder: Melkor
  • Mediainfo: Clic para Mostrar Datos Ver
  • Unidos (2020) PLACEBO Full HD 1080p Latino.mkv
    Format                      : Matroska
    Format version              : Version 4
    File size                   : 7.70 GiB
    Duration                    : 1 h 42 min
    Overall bit rate mode       : Variable
    Overall bit rate            : 10.8 Mb/s
    Movie name                  : Onward (2020) CinemaniaHDD.Net
    Encoded date                : UTC 2020-05-16 02:37:30
    Writing application         : mkvmerge v42.0.0 ('Overtime') 64-bit
    Writing library             : libebml v1.3.10 + libmatroska v1.5.2
    Attachments                 : CINEMANIAHD.png

    Video
    ID                          : 1
    Format                      : AVC
    Format/Info                 : Advanced Video Codec
    Format profile              : High@L4.1
    Format settings             : CABAC / 4 Ref Frames
    Format settings, CABAC      : Yes
    Format settings, Reference  : 4 frames
    Codec ID                    : V_MPEG4/ISO/AVC
    Duration                    : 1 h 42 min
    Bit rate                    : 4 761 kb/s
    Width                       : 1 920 pixels
    Height                      : 1 080 pixels
    Display aspect ratio        : 16:9
    Frame rate mode             : Constant
    Frame rate                  : 23.976 (24000/1001) FPS
    Color space                 : YUV
    Chroma subsampling          : 4:2:0
    Bit depth                   : 8 bits
    Scan type                   : Progressive
    Bits/(Pixel*Frame)          : 0.096
    Stream size                 : 3.40 GiB (44%)
    Title                       : Full HD1080p [CinemaniaHDD]
    Writing library             : x264 core 157 r2935 545de2f
    Encoding settings           : cabac=1 / ref=4 / deblock=1:0:0 / analyse=0x3:0x133 / me=tesa / subme=11 / psy=1 / psy_rd=1.00:0.00 / mixed_ref=1 / me_range=24 / chroma_me=1 / trellis=2 / 8x8dct=1 / cqm=0 / deadzone=21,11 / fast_pskip=0 / chroma_qp_offset=-2 / threads=34 / lookahead_threads=8 / sliced_threads=0 / nr=0 / decimate=1 / interlaced=0 / bluray_compat=0 / constrained_intra=0 / bframes=16 / b_pyramid=2 / b_adapt=2 / b_bias=0 / direct=3 / weightb=1 / open_gop=0 / weightp=2 / keyint=240 / keyint_min=24 / scenecut=40 / intra_refresh=0 / rc_lookahead=60 / rc=crf / mbtree=1 / crf=19.0 / qcomp=0.60 / qpmin=0 / qpmax=69 / qpstep=4 / vbv_maxrate=62500 / vbv_bufsize=78125 / crf_max=0.0 / nal_hrd=none / filler=0 / ip_ratio=1.40 / aq=1:1.00
    Default                     : Yes
    Forced                      : Yes
    Color range                 : Limited
    Color primaries             : BT.709
    Transfer characteristics    : BT.709
    Matrix coefficients         : BT.709

    Audio #1
    ID                          : 2
    Format                      : AC-3
    Format/Info                 : Audio Coding 3
    Commercial name             : Dolby Digital
    Codec ID                    : A_AC3
    Duration                    : 1 h 42 min
    Bit rate mode               : Constant
    Bit rate                    : 640 kb/s
    Channel(s)                  : 6 channels
    Channel layout              : L R C LFE Ls Rs
    Sampling rate               : 48.0 kHz
    Frame rate                  : 31.250 FPS (1536 SPF)
    Compression mode            : Lossy
    Stream size                 : 469 MiB (6%)
    Title                       : Español Latino [CinemaniaHDD]
    Language                    : Spanish
    Service kind                : Complete Main
    Default                     : Yes
    Forced                      : Yes

    Audio #2
    ID                          : 3
    Format                      : DTS XLL
    Format/Info                 : Digital Theater Systems
    Commercial name             : DTS-HD Master Audio
    Codec ID                    : A_DTS
    Duration                    : 1 h 42 min
    Bit rate mode               : Variable
    Bit rate                    : 4 699 kb/s
    Channel(s)                  : 8 channels
    Channel layout              : C L R LFE Lb Rb Lss Rss
    Sampling rate               : 48.0 kHz
    Frame rate                  : 93.750 FPS (512 SPF)
    Bit depth                   : 24 bits
    Compression mode            : Lossless
    Stream size                 : 3.36 GiB (44%)
    Title                       : Ingles [CinemaniaHDD]
    Language                    : English
    Default                     : No
    Forced                      : No

    Audio #3
    ID                          : 4
    Format                      : AC-3
    Format/Info                 : Audio Coding 3
    Commercial name             : Dolby Digital
    Codec ID                    : A_AC3
    Duration                    : 1 h 42 min
    Bit rate mode               : Constant
    Bit rate                    : 640 kb/s
    Channel(s)                  : 6 channels
    Channel layout              : L R C LFE Ls Rs
    Sampling rate               : 48.0 kHz
    Frame rate                  : 31.250 FPS (1536 SPF)
    Compression mode            : Lossy
    Stream size                 : 469 MiB (6%)
    Title                       : Ingles AC3 [CinemaniaHDD]
    Language                    : English
    Service kind                : Complete Main
    Default                     : No
    Forced                      : No

    Text #1
    ID                          : 5
    Format                      : PGS
    Muxing mode                 : zlib
    Codec ID                    : S_HDMV/PGS
    Codec ID/Info               : Picture based subtitle format used on BDs/HD-DVDs
    Duration                    : 1 h 41 min
    Bit rate                    : 36.9 kb/s
    Count of elements           : 2788
    Stream size                 : 26.7 MiB (0%)
    Title                       : Español-PGS [CinemaniaHDD]
    Language                    : Spanish
    Default                     : No
    Forced                      : No

    Text #2
    ID                          : 6
    Format                      : PGS
    Muxing mode                 : zlib
    Codec ID                    : S_HDMV/PGS
    Codec ID/Info               : Picture based subtitle format used on BDs/HD-DVDs
    Duration                    : 1 h 41 min
    Bit rate                    : 37.5 kb/s
    Count of elements           : 2734
    Stream size                 : 27.2 MiB (0%)
    Title                       : Ingles-PGS [CinemaniaHDD]
    Language                    : English
    Default                     : No
    Forced                      : No

    Text #3
    ID                          : 7
    Format                      : UTF-8
    Codec ID                    : S_TEXT/UTF8
    Codec ID/Info               : UTF-8 Plain Text
    Duration                    : 53 min 46 s
    Bit rate                    : 0 b/s
    Count of elements           : 10
    Stream size                 : 122 Bytes (0%)
    Title                       : Forzados-SRT [CinemaniaHDD]
    Language                    : Spanish
    Default                     : Yes
    Forced                      : Yes

    Text #4
    ID                          : 8
    Format                      : UTF-8
    Codec ID                    : S_TEXT/UTF8
    Codec ID/Info               : UTF-8 Plain Text
    Duration                    : 1 h 31 min
    Bit rate                    : 65 b/s
    Count of elements           : 1387
    Stream size                 : 43.9 KiB (0%)
    Title                       : Español-SRT [CinemaniaHDD]
    Language                    : Spanish
    Default                     : No
    Forced                      : No

    Text #5
    ID                          : 9
    Format                      : UTF-8
    Codec ID                    : S_TEXT/UTF8
    Codec ID/Info               : UTF-8 Plain Text
    Duration                    : 1 h 35 min
    Bit rate                    : 78 b/s
    Count of elements           : 1904
    Stream size                 : 54.8 KiB (0%)
    Title                       : Ingles-SRT [CinemaniaHDD]
    Language                    : English
    Default                     : No
    Forced                      : No

    Menu
    00:00:00.000                : en:Chapter 01
    00:02:30.024                : en:Chapter 02
    00:07:06.384                : en:Chapter 03
    00:08:14.327                : en:Chapter 04
    00:12:45.014                : en:Chapter 05
    00:14:53.726                : en:Chapter 06
    00:19:21.034                : en:Chapter 07
    00:23:46.049                : en:Chapter 08
    00:25:34.741                : en:Chapter 09
    00:26:11.110                : en:Chapter 10
    00:27:25.435                : en:Chapter 11
    00:30:02.133                : en:Chapter 12
    00:32:49.133                : en:Chapter 13
    00:34:43.622                : en:Chapter 14
    00:36:40.781                : en:Chapter 15
    00:40:41.980                : en:Chapter 16
    00:42:48.732                : en:Chapter 17
    00:44:02.139                : en:Chapter 18
    00:45:41.112                : en:Chapter 19
    00:47:49.157                : en:Chapter 20
    00:52:01.367                : en:Chapter 21
    00:55:12.141                : en:Chapter 22
    00:57:23.939                : en:Chapter 23
    01:02:23.322                : en:Chapter 24
    01:04:02.963                : en:Chapter 25
    01:07:13.070                : en:Chapter 26
    01:08:49.040                : en:Chapter 27
    01:10:06.159                : en:Chapter 28
    01:11:12.267                : en:Chapter 29
    01:13:13.054                : en:Chapter 30
    01:15:58.720                : en:Chapter 31
    01:17:37.026                : en:Chapter 32
    01:20:26.320                : en:Chapter 33
    01:25:01.262                : en:Chapter 34
    01:26:59.588                : en:Chapter 35
    01:30:10.779                : en:Chapter 36
    01:32:51.898                : en:Chapter 37

  • Peso: 7.70 GiB

Sinopsis

Descargar Onward: Unidos (2020) PLACEBO Full HD 1080p Latino. Ambientado en un mundo de fantasía suburbana, dos hermanos elfos adolescentes, Ian y Barley Lightfood, se embarcan en una aventura en la que se proponen descubrir si existe aún algo de magia en el mundo que les permita pasar un último día con su padre, que falleció cuando ellos eran aún muy pequeños como para poder recordarlo.

Nota: Textos En Español 🙂

Ficha técnica

Video trailer de la película

Enlaces de descarga

Rip de Bluray

Descargar Onward: Unidos (2020) PLACEBO Full HD 1080p Latino




Aportes de DPeliculasHDmega la pass es:dpeliculashdmega.org Aportes de CinemaniaHD la pass es:cinemaniahdd.com

Películas relacionadas

  • Rogue (2020) PLACEBO Full HD 1080p Latino

    Rogue (2020) PLACEBO Full HD 1080p Latino

    2020
    Rogue (2020) PLACEBO Full HD 1080p Latino

    0.0 1h 46m 2020

    Descargar Rogue (2020) PLACEBO Full HD 1080p Latino. O'Hara es una mercenaria que dirige un escuadrón...

    Director: M.J. Bassett

    Género: Acción

    Actores: Tamer Burjaq

  • Hermosas Criaturas (2013) 1080p Latino

    Hermosas Criaturas (2013) 1080p Latino

    2013
    Hermosas Criaturas (2013) 1080p Latino

    0.0 2h 4m 2013

    Descargar Hermosas Criaturas (2013) 1080p Latino. El hastío domina la vida de Ethan Wate, un chico que...

    Director: Richard LaGravenese

    Género: Drama

    Actores: Zoey Deutch

  • Hermosas Criaturas (2013) Full HD 1080p Latino

    Hermosas Criaturas (2013) Full HD 1080p Latino

    2013
    Hermosas Criaturas (2013) Full HD 1080p Latino

    0.0 2h 4m 2013

    Descargar Hermosas Criaturas (2013) Full HD 1080p Latino. El hastío domina la vida de Ethan Wate, un...

    Director: Richard LaGravenese

    Género: Drama

    Actores: Zoey Deutch

  • Hermosas Criaturas (2013) REMUX 1080p Latino

    Hermosas Criaturas (2013) REMUX 1080p Latino

    2013
    Hermosas Criaturas (2013) REMUX 1080p Latino

    0.0 2h 4m 2013

    Descargar Hermosas Criaturas (2013) REMUX 1080p Latino. El hastío domina la vida de Ethan Wate, un chico...

    Director: Richard LaGravenese

    Género: Drama

    Actores: Zoey Deutch

Comentarios 5
  • german - 20 mayo, 2020

    excelente pagina gracias.

  • jhon dark - 20 mayo, 2020

    El enlace de mega no es valido 🙁

    • Dracarys - 20 mayo, 2020

      si es valido…

      • pablo - 26 mayo, 2020

        en MEGA no funciona

        • Dracarys - 26 mayo, 2020

          usar un gestor de descargas….