×

¿Problemas para descargar con Mozilla, EDGE? Deshabilita la opción "Abrir vinculos en una pestaña nueva" tal como lo muestra ésta imagen.

Onward: Unidos (2020) HD 1080p Latino

3.038 vistas

Información de Onward: Unidos (2020) HD 1080p Latino

Datos de la película

  • Calidad: 1080p
  • Audio: Español Latino AC3 5.1 BLURAY - Ingles AC3 5.1 BLURAY
  • Subtitulos: Español Latino SRT - Ingles SRT
  • Resolución: 1920x804p
  • Formato: MKV
  • Codec: H.264
  • Encoder: Melkor
  • Mediainfo: Clic para Mostrar Datos Ver
  • Unidos (2020) HD 1080p Latino.mkv
    Format                      : Matroska
    Format version              : Version 4
    File size                   : 3.40 GiB
    Duration                    : 1 h 42 min
    Overall bit rate            : 4 748 kb/s
    Movie name                  : Onward (2020) CinemaniaHDD.Net
    Encoded date                : UTC 2020-05-16 01:02:11
    Writing application         : mkvmerge v42.0.0 ('Overtime') 64-bit
    Writing library             : libebml v1.3.10 + libmatroska v1.5.2
    Attachments                 : CINEMANIAHD.png

    Video
    ID                          : 1
    Format                      : AVC
    Format/Info                 : Advanced Video Codec
    Format profile              : High@L4.1
    Format settings             : CABAC / 5 Ref Frames
    Format settings, CABAC      : Yes
    Format settings, Reference  : 5 frames
    Codec ID                    : V_MPEG4/ISO/AVC
    Duration                    : 1 h 42 min
    Bit rate                    : 3 500 kb/s
    Width                       : 1 920 pixels
    Height                      : 804 pixels
    Display aspect ratio        : 2.40:1
    Frame rate mode             : Constant
    Frame rate                  : 23.976 (24000/1001) FPS
    Color space                 : YUV
    Chroma subsampling          : 4:2:0
    Bit depth                   : 8 bits
    Scan type                   : Progressive
    Bits/(Pixel*Frame)          : 0.095
    Stream size                 : 2.48 GiB (73%)
    Title                       : HD1080p [CinemaniaHDD]
    Writing library             : x264 core 157 r2935 545de2f
    Encoding settings           : cabac=1 / ref=5 / deblock=1:1:1 / analyse=0x3:0x113 / me=hex / subme=8 / psy=1 / psy_rd=0.40:0.00 / mixed_ref=1 / me_range=16 / chroma_me=1 / trellis=2 / 8x8dct=1 / cqm=0 / deadzone=21,11 / fast_pskip=1 / chroma_qp_offset=-2 / threads=24 / lookahead_threads=4 / sliced_threads=0 / nr=0 / decimate=1 / interlaced=0 / bluray_compat=0 / constrained_intra=0 / bframes=5 / b_pyramid=2 / b_adapt=1 / b_bias=0 / direct=3 / weightb=1 / open_gop=0 / weightp=2 / keyint=240 / keyint_min=24 / scenecut=40 / intra_refresh=0 / rc_lookahead=50 / rc=abr / mbtree=1 / bitrate=3500 / ratetol=1.0 / qcomp=0.60 / qpmin=0 / qpmax=69 / qpstep=4 / vbv_maxrate=62500 / vbv_bufsize=78125 / nal_hrd=none / filler=0 / ip_ratio=1.40 / aq=1:0.60
    Default                     : Yes
    Forced                      : Yes
    Color range                 : Limited
    Color primaries             : BT.709
    Transfer characteristics    : BT.709
    Matrix coefficients         : BT.709

    Audio #1
    ID                          : 2
    Format                      : AC-3
    Format/Info                 : Audio Coding 3
    Commercial name             : Dolby Digital
    Codec ID                    : A_AC3
    Duration                    : 1 h 42 min
    Bit rate mode               : Constant
    Bit rate                    : 640 kb/s
    Channel(s)                  : 6 channels
    Channel layout              : L R C LFE Ls Rs
    Sampling rate               : 48.0 kHz
    Frame rate                  : 31.250 FPS (1536 SPF)
    Compression mode            : Lossy
    Stream size                 : 469 MiB (13%)
    Title                       : Español Latino [CinemaniaHDD]
    Language                    : Spanish
    Service kind                : Complete Main
    Default                     : Yes
    Forced                      : Yes

    Audio #2
    ID                          : 3
    Format                      : AC-3
    Format/Info                 : Audio Coding 3
    Commercial name             : Dolby Digital
    Codec ID                    : A_AC3
    Duration                    : 1 h 42 min
    Bit rate mode               : Constant
    Bit rate                    : 640 kb/s
    Channel(s)                  : 6 channels
    Channel layout              : L R C LFE Ls Rs
    Sampling rate               : 48.0 kHz
    Frame rate                  : 31.250 FPS (1536 SPF)
    Compression mode            : Lossy
    Stream size                 : 469 MiB (13%)
    Title                       : Ingles AC3 [CinemaniaHDD]
    Language                    : English
    Service kind                : Complete Main
    Default                     : No
    Forced                      : No

    Text #1
    ID                          : 4
    Format                      : UTF-8
    Codec ID                    : S_TEXT/UTF8
    Codec ID/Info               : UTF-8 Plain Text
    Duration                    : 53 min 46 s
    Bit rate                    : 0 b/s
    Count of elements           : 10
    Stream size                 : 122 Bytes (0%)
    Title                       : Forzados-SRT [CinemaniaHDD]
    Language                    : Spanish
    Default                     : Yes
    Forced                      : Yes

    Text #2
    ID                          : 5
    Format                      : UTF-8
    Codec ID                    : S_TEXT/UTF8
    Codec ID/Info               : UTF-8 Plain Text
    Duration                    : 1 h 31 min
    Bit rate                    : 65 b/s
    Count of elements           : 1387
    Stream size                 : 43.9 KiB (0%)
    Title                       : Español-SRT [CinemaniaHDD]
    Language                    : Spanish
    Default                     : No
    Forced                      : No

    Text #3
    ID                          : 6
    Format                      : UTF-8
    Codec ID                    : S_TEXT/UTF8
    Codec ID/Info               : UTF-8 Plain Text
    Duration                    : 1 h 35 min
    Bit rate                    : 78 b/s
    Count of elements           : 1904
    Stream size                 : 54.8 KiB (0%)
    Title                       : Ingles-SRT [CinemaniaHDD]
    Language                    : English
    Default                     : No
    Forced                      : No

    Menu
    00:00:00.000                : en:Chapter 01
    00:02:30.024                : en:Chapter 02
    00:07:06.384                : en:Chapter 03
    00:08:14.327                : en:Chapter 04
    00:12:45.014                : en:Chapter 05
    00:14:53.726                : en:Chapter 06
    00:19:21.034                : en:Chapter 07
    00:23:46.049                : en:Chapter 08
    00:25:34.741                : en:Chapter 09
    00:26:11.110                : en:Chapter 10
    00:27:25.435                : en:Chapter 11
    00:30:02.133                : en:Chapter 12
    00:32:49.133                : en:Chapter 13
    00:34:43.622                : en:Chapter 14
    00:36:40.781                : en:Chapter 15
    00:40:41.980                : en:Chapter 16
    00:42:48.732                : en:Chapter 17
    00:44:02.139                : en:Chapter 18
    00:45:41.112                : en:Chapter 19
    00:47:49.157                : en:Chapter 20
    00:52:01.367                : en:Chapter 21
    00:55:12.141                : en:Chapter 22
    00:57:23.939                : en:Chapter 23
    01:02:23.322                : en:Chapter 24
    01:04:02.963                : en:Chapter 25
    01:07:13.070                : en:Chapter 26
    01:08:49.040                : en:Chapter 27
    01:10:06.159                : en:Chapter 28
    01:11:12.267                : en:Chapter 29
    01:13:13.054                : en:Chapter 30
    01:15:58.720                : en:Chapter 31
    01:17:37.026                : en:Chapter 32
    01:20:26.320                : en:Chapter 33
    01:25:01.262                : en:Chapter 34
    01:26:59.588                : en:Chapter 35
    01:30:10.779                : en:Chapter 36
    01:32:51.898                : en:Chapter 37

  • Peso: 3.40 GiB

Sinopsis

Descargar Onward: Unidos (2020) HD 1080p Latino. Ambientado en un mundo de fantasía suburbana, dos hermanos elfos adolescentes, Ian y Barley Lightfood, se embarcan en una aventura en la que se proponen descubrir si existe aún algo de magia en el mundo que les permita pasar un último día con su padre, que falleció cuando ellos eran aún muy pequeños como para poder recordarlo.

Nota: Actualizada Con Textos En Español 🙂

Ficha técnica

Video trailer de la película

Enlaces de descarga

Rip de Bluray

Descargar Onward: Unidos (2020) HD 1080p Latino




Aportes de DPeliculasHDmega la pass es:dpeliculashdmega.org Aportes de CinemaniaHD la pass es:cinemaniahdd.com

Películas relacionadas

  • Wire Room (2022) HD 1080p Latino

    Wire Room (2022) HD 1080p Latino

    2022
    Wire Room (2022) HD 1080p Latino

    1h 37m 2022

    Descargar Wire Room (2022) HD 1080p Latino. Mientras está de servicio en la sala de cables, un agente...

    Director: Matt Eskandari

    Género: Acción

    Actores: Texas Battle

  • Alarido (2022) HD 1080p Latino

    Alarido (2022) HD 1080p Latino

    2022
    Alarido (2022) HD 1080p Latino

    1h 29m 2022

    Descargar Alarido (2022) HD 1080p Latino. Una joven madre soltera es cautiva junto con sus dos hijos...

    Director: D.J. Caruso

    Género: HD 1080p

    Actores: Vincent Gallo

descargar Onward: Unidos (2020) HD 1080p Latino 1080p 1080p gratis, Onward: Unidos (2020) HD 1080p Latino 1080p mega 1 link, Onward: Unidos (2020) HD 1080p Latino 1080p pelicula completa, descargar Onward: Unidos (2020) HD 1080p Latino 1080p gratis en mega.

Onward: Unidos (2020) HD 1080p Latino pelicula full hd, Onward: Unidos (2020) HD 1080p Latino mega latino, Onward: Unidos (2020) HD 1080p Latino 4k latino, Onward: Unidos (2020) HD 1080p Latino pelicula completa, Onward: Unidos (2020) HD 1080p Latino descargar gratis, descargar Onward: Unidos (2020) HD 1080p Latino pelicula latino, Onward: Unidos (2020) HD 1080p Latino 1 link mega, Onward: Unidos (2020) HD 1080p Latino 1 link google drive, Onward: Unidos (2020) HD 1080p Latino hd 1080p latino.
Comentarios 0