×

¿Problemas para descargar con Mozilla, EDGE? Deshabilita la opción "Abrir vinculos en una pestaña nueva" tal como lo muestra ésta imagen.

Only Murders in the Building (2021) Temporada 1 WEB-DL 1080p Latino

140 vistas

Información de Only Murders in the Building (2021) Temporada 1 WEB-DL 1080p Latino

Datos de la película

  • Calidad: WEBDL
  • Audio: Se especifica abajo de la Sinopsis
  • Subtitulos: Español Latino SRT- FORZADOS SRT
  • Resolución: 1920x1080p
  • Formato: MKV
  • Codec: H.264
  • Encoder: Melkor
  • Mediainfo: Clic para Mostrar Datos Ver
  • Only Murders In The Building S01E01 (2021) Web-DL 1080p Latino.mkv
    Format                      : Matroska
    Format version              : Version 4
    File size                   : 1.74 GiB
    Duration                    : 33 min 13 s
    Overall bit rate mode       : Variable
    Overall bit rate            : 7 482 kb/s
    Movie name                  : Only Murders In The Building S01E01 CinemaniaHDD.Net
    Encoded date                : UTC 2023-09-10 18:43:26
    Writing application         : mkvmerge v56.1.0 ('My Friend') 64-bit
    Writing library             : libebml v1.4.2 + libmatroska v1.6.4
    Attachments                 : CINEMANIAHD.png
    Site                        : CinemaniaHDD.Net
    Uploader                    : Melkor

    Video
    ID                          : 1
    Format                      : AVC
    Format/Info                 : Advanced Video Codec
    Format profile              : High@L4
    Format settings             : CABAC / 4 Ref Frames
    Format settings, CABAC      : Yes
    Format settings, Reference  : 4 frames
    Codec ID                    : V_MPEG4/ISO/AVC
    Duration                    : 33 min 13 s
    Bit rate mode               : Variable
    Bit rate                    : 6 967 kb/s
    Maximum bit rate            : 12.7 Mb/s
    Width                       : 1 920 pixels
    Height                      : 1 080 pixels
    Display aspect ratio        : 16:9
    Frame rate mode             : Constant
    Frame rate                  : 23.976 (24000/1001) FPS
    Color space                 : YUV
    Chroma subsampling          : 4:2:0
    Bit depth                   : 8 bits
    Scan type                   : Progressive
    Bits/(Pixel*Frame)          : 0.140
    Stream size                 : 1.62 GiB (93%)
    Title                       : WEB HD1080p [CinemaniaHDD]
    Default                     : Yes
    Forced                      : No
    Color range                 : Limited
    Color primaries             : BT.709
    Transfer characteristics    : BT.709
    Matrix coefficients         : BT.709

    Audio #1
    ID                          : 2
    Format                      : E-AC-3
    Format/Info                 : Enhanced AC-3
    Commercial name             : Dolby Digital Plus
    Codec ID                    : A_EAC3
    Duration                    : 33 min 13 s
    Bit rate mode               : Constant
    Bit rate                    : 256 kb/s
    Channel(s)                  : 6 channels
    Channel layout              : L R C LFE Ls Rs
    Sampling rate               : 48.0 kHz
    Frame rate                  : 31.250 FPS (1536 SPF)
    Compression mode            : Lossy
    Stream size                 : 60.8 MiB (3%)
    Title                       : Español Latino [CinemaniaHDD]
    Language                    : Spanish
    Service kind                : Complete Main
    Default                     : Yes
    Forced                      : No

    Audio #2
    ID                          : 3
    Format                      : E-AC-3
    Format/Info                 : Enhanced AC-3
    Commercial name             : Dolby Digital Plus
    Codec ID                    : A_EAC3
    Duration                    : 33 min 13 s
    Bit rate mode               : Constant
    Bit rate                    : 256 kb/s
    Channel(s)                  : 6 channels
    Channel layout              : L R C LFE Ls Rs
    Sampling rate               : 48.0 kHz
    Frame rate                  : 31.250 FPS (1536 SPF)
    Compression mode            : Lossy
    Stream size                 : 60.8 MiB (3%)
    Title                       : Ingles [CinemaniaHDD]
    Language                    : English
    Service kind                : Complete Main
    Default                     : No
    Forced                      : No

    Text #1
    ID                          : 4
    Format                      : UTF-8
    Codec ID                    : S_TEXT/UTF8
    Codec ID/Info               : UTF-8 Plain Text
    Duration                    : 32 min 17 s
    Bit rate                    : 0 b/s
    Count of elements           : 7
    Stream size                 : 162 Bytes (0%)
    Title                       : Forzados-SRT [CinemaniaHDD]
    Language                    : Spanish
    Default                     : Yes
    Forced                      : No

    Text #2
    ID                          : 5
    Format                      : UTF-8
    Codec ID                    : S_TEXT/UTF8
    Codec ID/Info               : UTF-8 Plain Text
    Duration                    : 32 min 52 s
    Bit rate                    : 65 b/s
    Count of elements           : 448
    Stream size                 : 15.8 KiB (0%)
    Title                       : Español-SRT [CinemaniaHDD]
    Language                    : Spanish
    Default                     : No
    Forced                      : No

    Text #3
    ID                          : 6
    Format                      : UTF-8
    Codec ID                    : S_TEXT/UTF8
    Codec ID/Info               : UTF-8 Plain Text
    Duration                    : 31 min 40 s
    Bit rate                    : 81 b/s
    Count of elements           : 542
    Stream size                 : 18.8 KiB (0%)
    Title                       : Ingles-SRT [CinemaniaHDD]
    Language                    : English
    Default                     : No
    Forced                      : No

    Menu
    00:04:22.182                : Intro
    00:05:03.348                : Main
    00:32:21.820                : Credits

  • Peso: 1.7 GiB Aprox C/U -- 16.3 GiB -- 10 Chapters

Sinopsis

Descargar Only Murders in the Building (2021) Temporada 1 WEB-DL 1080p Latino. Only Murders In The Building sigue a tres extraños que comparten una obsesión por el crimen verdadero y que de pronto se ven envueltos en uno cuando investigan la misteriosa muerte de un vecino en su edificio de apartamentos de Nueva York.

Audio Español Latino EAC3 5.1 Web – Ingles EAC3 5.1 Web

Ficha técnica

Video trailer de la película

Enlaces de descarga

Rip de Bluray

Descargar Only Murders in the Building (2021) Temporada 1 WEB-DL 1080p Latino




Aportes de DPeliculasHDmega la pass es:dpeliculashdmega.org Aportes de CinemaniaHD la pass es:cinemaniahdd.com Aportes recientes:cinemaniahdd.net
Guardado en : Comedia , Crimen , Misterio , Series

Películas relacionadas

  • iZombie (2016) Temporada 02 Full HD 1080p Latino

    iZombie (2016) Temporada 02 Full HD 1080p Latino

    2015
    iZombie (2016) Temporada 02 Full HD 1080p Latino

    0h 42m 2015

    Descargar iZombie (2016) Temporada 02 Full HD 1080p Latino. Gira en torno a una estudiante de medicina...

    Director: Rob Thomas

    Género: Crimen

    Actores: Rose McIver

  • iZombie (2016) Temporada 02 REMUX 1080p Latino

    iZombie (2016) Temporada 02 REMUX 1080p Latino

    2015
    iZombie (2016) Temporada 02 REMUX 1080p Latino

    0h 42m 2015

    Descargar iZombie (2016) Temporada 02 REMUX 1080p Latino. Gira en torno a una estudiante de medicina...

    Director: Rob Thomas

    Género: Crimen

    Actores: Rose McIver

  • iZombie (2015) Temporada 01 Full HD 1080p Latino

    iZombie (2015) Temporada 01 Full HD 1080p Latino

    2015
    iZombie (2015) Temporada 01 Full HD 1080p Latino

    0h 42m 2015

    Descargar iZombie (2015) Temporada 01 Full HD 1080p Latino. Gira en torno a una estudiante de medicina...

    Director: Rob Thomas

    Género: Crimen

    Actores: Rose McIver

  • iZombie (2015) Temporada 01 REMUX 1080p Latino

    iZombie (2015) Temporada 01 REMUX 1080p Latino

    2015
    iZombie (2015) Temporada 01 REMUX 1080p Latino

    0h 42m 2015

    Descargar iZombie (2015) Temporada 01 REMUX 1080p Latino. Gira en torno a una estudiante de medicina...

    Director: Rob Thomas

    Género: Crimen

    Actores: Rose McIver

descargar Only Murders in the Building (2021) Temporada 1 WEB-DL 1080p Latino WEBDL 1080p gratis, Only Murders in the Building (2021) Temporada 1 WEB-DL 1080p Latino WEBDL mega 1 link, Only Murders in the Building (2021) Temporada 1 WEB-DL 1080p Latino WEBDL serie completa, descargar Only Murders in the Building (2021) Temporada 1 WEB-DL 1080p Latino WEBDL gratis en mega.

Only Murders in the Building (2021) Temporada 1 WEB-DL 1080p Latino pelicula full hd, Only Murders in the Building (2021) Temporada 1 WEB-DL 1080p Latino mega latino, Only Murders in the Building (2021) Temporada 1 WEB-DL 1080p Latino 4k latino, Only Murders in the Building (2021) Temporada 1 WEB-DL 1080p Latino pelicula completa, Only Murders in the Building (2021) Temporada 1 WEB-DL 1080p Latino descargar gratis, descargar Only Murders in the Building (2021) Temporada 1 WEB-DL 1080p Latino pelicula latino, Only Murders in the Building (2021) Temporada 1 WEB-DL 1080p Latino 1 link mega, Only Murders in the Building (2021) Temporada 1 WEB-DL 1080p Latino 1 link google drive, Only Murders in the Building (2021) Temporada 1 WEB-DL 1080p Latino hd 1080p latino.
Comentarios 0