×

¿Problemas para descargar con Mozilla, EDGE? Deshabilita la opción "Abrir vinculos en una pestaña nueva" tal como lo muestra ésta imagen.

Only Murders in the Building (2022) Temporada 2 WEB-DL 1080p Latino

4.374 vistas

Información de Only Murders in the Building (2022) Temporada 2 WEB-DL 1080p Latino

Datos de la película

  • Calidad: WEBDL
  • Audio: Se especifica abajo de la Sinopsis
  • Subtitulos: Español Latino SRT- FORZADOS SRT
  • Resolución: 1920x1080p
  • Formato: MKV
  • Codec: H.264
  • Encoder: CinemaniaHD
  • Mediainfo: Clic para Mostrar Datos Ver
  • Only Murders In The Building S02E01 (2022) Web-DL 1080p Latino.mkv
    Format                      : Matroska
    Format version              : Version 4
    File size                   : 1.61 GiB
    Duration                    : 35 min 42 s
    Overall bit rate mode       : Variable
    Overall bit rate            : 6 466 kb/s
    Movie name                  : CinemaniaHDD.Net
    Encoded date                : UTC 2022-06-29 05:07:12
    Writing application         : mkvmerge v56.1.0 ('My Friend') 64-bit
    Writing library             : libebml v1.4.2 + libmatroska v1.6.4
    Attachments                 : CINEMANIAHD.png

    Video
    ID                          : 1
    Format                      : AVC
    Format/Info                 : Advanced Video Codec
    Format profile              : High@L4
    Format settings             : CABAC / 4 Ref Frames
    Format settings, CABAC      : Yes
    Format settings, Reference  : 4 frames
    Codec ID                    : V_MPEG4/ISO/AVC
    Duration                    : 35 min 42 s
    Bit rate mode               : Variable
    Bit rate                    : 5 952 kb/s
    Maximum bit rate            : 12.7 Mb/s
    Width                       : 1 920 pixels
    Height                      : 1 080 pixels
    Display aspect ratio        : 16:9
    Frame rate mode             : Constant
    Frame rate                  : 23.976 (24000/1001) FPS
    Color space                 : YUV
    Chroma subsampling          : 4:2:0
    Bit depth                   : 8 bits
    Scan type                   : Progressive
    Bits/(Pixel*Frame)          : 0.120
    Stream size                 : 1.48 GiB (92%)
    Title                       : WEB HD1080p [CinemaniaHDD]
    Default                     : Yes
    Forced                      : No
    Color range                 : Limited
    Color primaries             : BT.709
    Transfer characteristics    : BT.709
    Matrix coefficients         : BT.709

    Audio #1
    ID                          : 2
    Format                      : E-AC-3
    Format/Info                 : Enhanced AC-3
    Commercial name             : Dolby Digital Plus
    Codec ID                    : A_EAC3
    Duration                    : 35 min 42 s
    Bit rate mode               : Constant
    Bit rate                    : 256 kb/s
    Channel(s)                  : 6 channels
    Channel layout              : L R C LFE Ls Rs
    Sampling rate               : 48.0 kHz
    Frame rate                  : 31.250 FPS (1536 SPF)
    Compression mode            : Lossy
    Stream size                 : 65.4 MiB (4%)
    Title                       : Español Latino [CinemaniaHDD]
    Language                    : Spanish
    Service kind                : Complete Main
    Default                     : Yes
    Forced                      : No

    Audio #2
    ID                          : 3
    Format                      : E-AC-3
    Format/Info                 : Enhanced AC-3
    Commercial name             : Dolby Digital Plus
    Codec ID                    : A_EAC3
    Duration                    : 35 min 42 s
    Bit rate mode               : Constant
    Bit rate                    : 256 kb/s
    Channel(s)                  : 6 channels
    Channel layout              : L R C LFE Ls Rs
    Sampling rate               : 48.0 kHz
    Frame rate                  : 31.250 FPS (1536 SPF)
    Compression mode            : Lossy
    Stream size                 : 65.4 MiB (4%)
    Title                       : Ingles [CinemaniaHDD]
    Language                    : English
    Service kind                : Complete Main
    Default                     : No
    Forced                      : No

    Text #1
    ID                          : 4
    Format                      : UTF-8
    Codec ID                    : S_TEXT/UTF8
    Codec ID/Info               : UTF-8 Plain Text
    Duration                    : 33 min 57 s
    Bit rate                    : 0 b/s
    Count of elements           : 7
    Stream size                 : 254 Bytes (0%)
    Title                       : Forzados-SRT [CinemaniaHDD]
    Language                    : Spanish
    Default                     : Yes
    Forced                      : No

    Text #2
    ID                          : 5
    Format                      : UTF-8
    Codec ID                    : S_TEXT/UTF8
    Codec ID/Info               : UTF-8 Plain Text
    Duration                    : 35 min 30 s
    Bit rate                    : 70 b/s
    Count of elements           : 541
    Stream size                 : 18.4 KiB (0%)
    Title                       : Español-SRT [CinemaniaHDD]
    Language                    : Spanish
    Default                     : No
    Forced                      : No

    Text #3
    ID                          : 6
    Format                      : UTF-8
    Codec ID                    : S_TEXT/UTF8
    Codec ID/Info               : UTF-8 Plain Text
    Duration                    : 34 min 29 s
    Bit rate                    : 81 b/s
    Count of elements           : 615
    Stream size                 : 20.6 KiB (0%)
    Title                       : Ingles-SRT [CinemaniaHDD]
    Language                    : English
    Default                     : No
    Forced                      : No

    Menu
    00:00:04.004                : Recap
    00:01:03.939                : End of Recap
    00:07:50.512                : Intro
    00:08:32.513                : End of Intro
    00:34:53.510                : Credits

  • Peso: 1.60 GiB Aprox C/U. -- 15.1 GiB -- 10 Chapters

Sinopsis

Descargar Only Murders in the Building (2022) Temporada 2 WEB-DL 1080p Latino. Only Murders In The Building sigue a tres extraños que comparten una obsesión por el crimen verdadero y que de pronto se ven envueltos en uno cuando investigan la misteriosa muerte de un vecino en su edificio de apartamentos de Nueva York.

Audio Español Latino EAC3 5.1 Web – Ingles EAC3 5.1 Web
10/10 Capitulos Disponibles!!

Ficha técnica

Video trailer de la película

Enlaces de descarga

Rip de Bluray

Descargar Only Murders in the Building (2022) Temporada 2 WEB-DL 1080p Latino




Aportes de DPeliculasHDmega la pass es:dpeliculashdmega.org Aportes de CinemaniaHD la pass es:cinemaniahdd.com
Guardado en : Comedia , Crimen , Misterio , Series

Películas relacionadas

  • Emily la criminal (2022) HD 1080p Latino

    Emily la criminal (2022) HD 1080p Latino

    2022
    Emily la criminal (2022) HD 1080p Latino

    1h 37m 2022

    Descargar Emily la criminal (2022) HD 1080p Latino. Emily, que tiene una deuda estudiantil y está excluida...

    Director: John Patton Ford

    Género: Crimen

    Actores: Theo Rossi

  • Emily la criminal (2022) REMUX 1080p Latino

    Emily la criminal (2022) REMUX 1080p Latino

    2022
    Emily la criminal (2022) REMUX 1080p Latino

    1h 37m 2022

    Descargar Emily la criminal (2022) REMUX 1080p Latino. Emily, que tiene una deuda estudiantil y está...

    Director: John Patton Ford

    Género: Crimen

    Actores: Theo Rossi

  • Lilo, Lilo, cocodrilo (2022) WEB-DL 1080p Latino

    Lilo, Lilo, cocodrilo (2022) WEB-DL 1080p Latino

    2022
    Lilo, Lilo, cocodrilo (2022) WEB-DL 1080p Latino

    1h 46m 2022

    Descargar Lilo, Lilo, cocodrilo (2022) WEB-DL 1080p Latino. Cuando la familia Primm se muda a Nueva York,...

    Director: Will Speck

    Género: Comedia

    Actores: Zeb Slone

descargar Only Murders in the Building (2022) Temporada 2 WEB-DL 1080p Latino WEBDL 1080p gratis, Only Murders in the Building (2022) Temporada 2 WEB-DL 1080p Latino WEBDL mega 1 link, Only Murders in the Building (2022) Temporada 2 WEB-DL 1080p Latino WEBDL serie completa, descargar Only Murders in the Building (2022) Temporada 2 WEB-DL 1080p Latino WEBDL gratis en mega.

Only Murders in the Building (2022) Temporada 2 WEB-DL 1080p Latino pelicula full hd, Only Murders in the Building (2022) Temporada 2 WEB-DL 1080p Latino mega latino, Only Murders in the Building (2022) Temporada 2 WEB-DL 1080p Latino 4k latino, Only Murders in the Building (2022) Temporada 2 WEB-DL 1080p Latino pelicula completa, Only Murders in the Building (2022) Temporada 2 WEB-DL 1080p Latino descargar gratis, descargar Only Murders in the Building (2022) Temporada 2 WEB-DL 1080p Latino pelicula latino, Only Murders in the Building (2022) Temporada 2 WEB-DL 1080p Latino 1 link mega, Only Murders in the Building (2022) Temporada 2 WEB-DL 1080p Latino 1 link google drive, Only Murders in the Building (2022) Temporada 2 WEB-DL 1080p Latino hd 1080p latino.
Comentarios 0