×

¿Problemas para descargar con Mozilla, EDGE? Deshabilita la opción "Abrir vinculos en una pestaña nueva" tal como lo muestra ésta imagen.

Ong Bak 3 (2010) REMUX 1080p SUB – CMHDD

159 vistas

Información de Ong Bak 3 (2010) REMUX 1080p SUB – CMHDD

Datos de la película

  • Calidad: Full 1080p
  • Audio: Se especifica abajo de la Sinopsis
  • Subtitulos: Español Latino PGS
  • Resolución: 1920x1080p
  • Formato: MKV
  • Codec: H.264
  • Encoder: Dracarys
  • Mediainfo: Clic para Mostrar Datos Ver
  • Format                      : Matroska
    Format version              : Version 4
    File size                   : 27.0 GiB
    Duration                    : 1 h 38 min
    Overall bit rate mode       : Variable
    Overall bit rate            : 39.1 Mb/s
    Movie name                  : Ong Bak 3 (2010) REMUX 1080p SUB - CMHDD
    Encoded date                : UTC 2021-11-01 01:46:58
    Writing application         : mkvmerge v17.0.0 ('Be Ur Friend') 64-bit
    Writing library             : libebml v1.3.5 + libmatroska v1.4.8

    Video
    ID                          : 1
    Format                      : AVC
    Format/Info                 : Advanced Video Codec
    Format profile              : High@L4.1
    Format settings             : CABAC / 4 Ref Frames
    Format settings, CABAC      : Yes
    Format settings, Reference  : 4 frames
    Codec ID                    : V_MPEG4/ISO/AVC
    Duration                    : 1 h 38 min
    Bit rate mode               : Variable
    Bit rate                    : 32.4 Mb/s
    Maximum bit rate            : 36.0 Mb/s
    Width                       : 1 920 pixels
    Height                      : 1 080 pixels
    Display aspect ratio        : 16:9
    Frame rate mode             : Constant
    Frame rate                  : 23.976 (24000/1001) FPS
    Color space                 : YUV
    Chroma subsampling          : 4:2:0
    Bit depth                   : 8 bits
    Scan type                   : Progressive
    Bits/(Pixel*Frame)          : 0.652
    Stream size                 : 22.4 GiB (83%)
    Default                     : Yes
    Forced                      : No

    Audio #1
    ID                          : 2
    Format                      : DTS XLL
    Format/Info                 : Digital Theater Systems
    Commercial name             : DTS-HD Master Audio
    Codec ID                    : A_DTS
    Duration                    : 1 h 38 min
    Bit rate mode               : Variable
    Bit rate                    : 4 492 kb/s
    Channel(s)                  : 6 channels
    Channel layout              : C L R Ls Rs LFE
    Sampling rate               : 48.0 kHz
    Frame rate                  : 93.750 FPS (512 SPF)
    Bit depth                   : 24 bits
    Compression mode            : Lossless
    Stream size                 : 3.10 GiB (11%)
    Language                    : Thai
    Default                     : Yes
    Forced                      : No

    Audio #2
    ID                          : 3
    Format                      : DTS XLL
    Format/Info                 : Digital Theater Systems
    Commercial name             : DTS-HD Master Audio
    Codec ID                    : A_DTS
    Duration                    : 1 h 38 min
    Bit rate mode               : Variable
    Bit rate                    : 2 199 kb/s
    Channel(s)                  : 6 channels
    Channel layout              : C L R Ls Rs LFE
    Sampling rate               : 48.0 kHz
    Frame rate                  : 93.750 FPS (512 SPF)
    Bit depth                   : 16 bits
    Compression mode            : Lossless
    Stream size                 : 1.52 GiB (6%)
    Language                    : English
    Default                     : No
    Forced                      : No

    Text
    ID                          : 4
    Format                      : PGS
    Muxing mode                 : zlib
    Codec ID                    : S_HDMV/PGS
    Codec ID/Info               : Picture based subtitle format used on BDs/HD-DVDs
    Duration                    : 1 h 22 min
    Bit rate                    : 10.0 kb/s
    Count of elements           : 542
    Stream size                 : 5.95 MiB (0%)
    Language                    : Spanish
    Default                     : Yes
    Forced                      : No

    Menu
    00:00:00.000                : en:Chapter 1
    00:08:25.213                : en:Chapter 2
    00:15:16.916                : en:Chapter 3
    00:26:08.191                : en:Chapter 4
    00:35:23.246                : en:Chapter 5
    00:46:59.233                : en:Chapter 6
    00:56:49.823                : en:Chapter 7
    01:05:54.283                : en:Chapter 8
    01:13:34.326                : en:Chapter 9
    01:23:55.363                : en:Chapter 10
    01:29:03.588                : en:Chapter 11
    01:32:36.467                : en:Chapter 12

  • Peso: 27.0 GiB

Sinopsis

La leyenda de Ong Bak 3 comienza cuando Tien (Tony Jaa) pierde sus habilidades para luchar al ser torturado casi hasta morir por orden de Lord Ratchasena. Tien vuelve a la vida con la ayuda de un inesperado aliado, además de Pim, Mhen, Phra Bua y de los habitantes de la aldea Kana Khone. Con las enseñanzas de Phra Bua sobre la meditación profunda, Tien por fin consigue alcanzar el ‘Nathayut’. Su talento vuelve a ser puesto a prueba cuando sus rivales, los misteriosos asesinos de negro y Bhuti Sangkha (el cuervo), vuelven para el enfrentamiento final.

 

Inglés: DTS 5.1  –  Tailandés: DTS 5.1

Ficha técnica

Video trailer de la película

Enlaces de descarga

Rip de Bluray

Descargar Ong Bak 3 (2010) REMUX 1080p SUB – CMHDD


Aportes de DPeliculasHDmega la pass es:dpeliculashdmega.org Aportes de CinemaniaHD la pass es:cinemaniahdd.com
Guardado en : Acción , Aventura , Historia

Películas relacionadas

  • The Expendables (2010) [Open Matte] WEB-DL 1080p Latino

    The Expendables (2010) [Open Matte] WEB-DL 1080p Latino

    2010
    The Expendables (2010) [Open Matte] WEB-DL 1080p Latino

    1h 43m 2010

    Un grupo de mercenarios es contratado para infiltrarse en un país sudamericano y derrocar a su despiadado...

    Director: Sylvester Stallone

    Género: Acción

    Actores: Victor Eli Hugo

  • Elvis (2022) WEB-DL 4K UHD HDR Latino

    Elvis (2022) WEB-DL 4K UHD HDR Latino

    2022
    Elvis (2022) WEB-DL 4K UHD HDR Latino

    2h 39m 2022

    Descargar Elvis (2022) WEB-DL 4K UHD HDR Latino. La película explora la vida y la música de Elvis Presley...

    Director: Baz Luhrmann

    Género: 4K HDR

    Actores: Yola

  • Elvis (2022) WEB-DL 1080p Latino

    Elvis (2022) WEB-DL 1080p Latino

    2022
    Elvis (2022) WEB-DL 1080p Latino

    2h 39m 2022

    Descargar Elvis (2022) WEB-DL 1080p Latino. La película explora la vida y la música de Elvis Presley...

    Director: Baz Luhrmann

    Género: Drama

    Actores: Yola

Ong Bak 3 (2010) REMUX 1080p SUB – CMHDD pelicula full hd, Ong Bak 3 (2010) REMUX 1080p SUB – CMHDD mega latino, Ong Bak 3 (2010) REMUX 1080p SUB – CMHDD 4k latino, Ong Bak 3 (2010) REMUX 1080p SUB – CMHDD pelicula completa, Ong Bak 3 (2010) REMUX 1080p SUB – CMHDD descargar gratis, descargar Ong Bak 3 (2010) REMUX 1080p SUB – CMHDD pelicula latino, Ong Bak 3 (2010) REMUX 1080p SUB – CMHDD 1 link mega, Ong Bak 3 (2010) REMUX 1080p SUB – CMHDD 1 link google drive, Ong Bak 3 (2010) REMUX 1080p SUB – CMHDD hd 1080p latino.
Comentarios 0