×

¿Problemas para descargar con Mozilla, EDGE? Deshabilita la opción "Abrir vinculos en una pestaña nueva" tal como lo muestra ésta imagen.

Ong Bak (2003) REMUX 1080p Latino – CMHDD

415 vistas

Información de Ong Bak (2003) REMUX 1080p Latino – CMHDD

Datos de la película

  • Calidad: Full 1080p
  • Audio: Se especifica abajo de la Sinopsis
  • Subtitulos: Español Latino PGS
  • Resolución: 1920x1080p
  • Formato: MKV
  • Codec: H.264
  • Encoder: Dracarys
  • Mediainfo: Clic para Mostrar Datos Ver
  • Format                      : Matroska
    Format version              : Version 4
    File size                   : 17.6 GiB
    Duration                    : 1 h 45 min
    Overall bit rate mode       : Variable
    Overall bit rate            : 24.0 Mb/s
    Movie name                  : Ong-Bak (2003) REMUX 1080p Latino - CMHDD
    Encoded date                : UTC 2021-10-25 02:02:33
    Writing application         : mkvmerge v17.0.0 ('Be Ur Friend') 64-bit
    Writing library             : libebml v1.3.5 + libmatroska v1.4.8

    Video
    ID                          : 1
    Format                      : AVC
    Format/Info                 : Advanced Video Codec
    Format profile              : High@L4.1
    Format settings             : CABAC / 4 Ref Frames
    Format settings, CABAC      : Yes
    Format settings, Reference  : 4 frames
    Codec ID                    : V_MPEG4/ISO/AVC
    Duration                    : 1 h 45 min
    Bit rate mode               : Variable
    Bit rate                    : 18.0 Mb/s
    Maximum bit rate            : 37.0 Mb/s
    Width                       : 1 920 pixels
    Height                      : 1 080 pixels
    Display aspect ratio        : 16:9
    Frame rate mode             : Constant
    Frame rate                  : 23.976 (24000/1001) FPS
    Color space                 : YUV
    Chroma subsampling          : 4:2:0
    Bit depth                   : 8 bits
    Scan type                   : Progressive
    Bits/(Pixel*Frame)          : 0.362
    Stream size                 : 13.2 GiB (75%)
    Default                     : Yes
    Forced                      : No
    Color range                 : Limited
    Color primaries             : BT.709
    Transfer characteristics    : BT.709
    Matrix coefficients         : BT.709

    Audio #1
    ID                          : 2
    Format                      : DTS XLL
    Format/Info                 : Digital Theater Systems
    Commercial name             : DTS-HD Master Audio
    Codec ID                    : A_DTS
    Duration                    : 1 h 45 min
    Bit rate mode               : Variable
    Bit rate                    : 2 859 kb/s
    Channel(s)                  : 6 channels
    Channel layout              : C L R Ls Rs LFE
    Sampling rate               : 48.0 kHz
    Frame rate                  : 93.750 FPS (512 SPF)
    Bit depth                   : 24 bits
    Compression mode            : Lossless
    Stream size                 : 2.10 GiB (12%)
    Language                    : English
    Default                     : No
    Forced                      : No

    Audio #2
    ID                          : 3
    Format                      : DTS XLL
    Format/Info                 : Digital Theater Systems
    Commercial name             : DTS-HD Master Audio
    Codec ID                    : A_DTS
    Duration                    : 1 h 45 min
    Bit rate mode               : Variable
    Bit rate                    : 2 889 kb/s
    Channel(s)                  : 6 channels
    Channel layout              : C L R Ls Rs LFE
    Sampling rate               : 48.0 kHz
    Frame rate                  : 93.750 FPS (512 SPF)
    Bit depth                   : 24 bits
    Compression mode            : Lossless
    Stream size                 : 2.12 GiB (12%)
    Language                    : Thai
    Default                     : No
    Forced                      : No

    Audio #3
    ID                          : 4
    Format                      : AC-3
    Format/Info                 : Audio Coding 3
    Commercial name             : Dolby Digital
    Codec ID                    : A_AC3
    Duration                    : 1 h 44 min
    Bit rate mode               : Constant
    Bit rate                    : 256 kb/s
    Channel(s)                  : 2 channels
    Channel layout              : L R
    Sampling rate               : 44.1 kHz
    Frame rate                  : 28.711 FPS (1536 SPF)
    Compression mode            : Lossy
    Stream size                 : 192 MiB (1%)
    Language                    : Spanish
    Service kind                : Complete Main
    Default                     : Yes
    Forced                      : No

    Text
    ID                          : 5
    Format                      : PGS
    Muxing mode                 : zlib
    Codec ID                    : S_HDMV/PGS
    Codec ID/Info               : Picture based subtitle format used on BDs/HD-DVDs
    Duration                    : 1 h 37 min
    Bit rate                    : 21.4 kb/s
    Count of elements           : 1221
    Stream size                 : 14.9 MiB (0%)
    Language                    : Spanish
    Default                     : No
    Forced                      : No

    Menu
    00:00:00.000                : en:Chapter 1
    00:05:32.999                : en:Chapter 2
    00:10:14.113                : en:Chapter 3
    00:13:48.369                : en:Chapter 4
    00:20:20.093                : en:Chapter 5
    00:22:54.748                : en:Chapter 6
    00:27:18.845                : en:Chapter 7
    00:32:05.006                : en:Chapter 8
    00:34:40.119                : en:Chapter 9
    00:40:47.153                : en:Chapter 10
    00:44:25.162                : en:Chapter 11
    00:50:08.714                : en:Chapter 12
    00:56:00.648                : en:Chapter 13
    00:58:13.406                : en:Chapter 14
    01:01:02.825                : en:Chapter 15
    01:03:42.109                : en:Chapter 16
    01:09:03.681                : en:Chapter 17
    01:11:39.003                : en:Chapter 18
    01:16:21.660                : en:Chapter 19
    01:22:22.604                : en:Chapter 20
    01:25:47.725                : en:Chapter 21
    01:30:43.604                : en:Chapter 22
    01:34:57.358                : en:Chapter 23
    01:39:29.588                : en:Chapter 24

  • Peso: 17.6 GiB

Sinopsis

Ong Bak es una estatua legendaria de Buda que se halla en el templo de Nong Para-du, en la Tailandia rural. Los aldeanos creen que los poderes mágicos de Ong Bak les protegen de todo mal. Un despiadado gánster roba la cabeza del buda dejando al pueblo totalmente desprotegido. Sus habitantes buscarán a un guerrero para recuperar el buda y enfrentarse a la banda de gánsters, encontrando a Ting, un huérfano criado en el templo, y alumno de Pra Kru, un amable monje, experto en el ancestral arte del Muay Thai: “Las Nueve Armas Corporales».

 

Latino: AC3 2.0  –  Inglés: DTS 5.1  –  Tailandés: DTS 5.1

Ficha técnica

Video trailer de la película

Enlaces de descarga

Rip de Bluray

Descargar Ong Bak (2003) REMUX 1080p Latino – CMHDD


Aportes de DPeliculasHDmega la pass es:dpeliculashdmega.org Aportes de CinemaniaHD la pass es:cinemaniahdd.com
Guardado en : Acción , Suspenso

Películas relacionadas

  • El Cuartel Secreto (2022) WEB-DL 4K UHD HDR Latino

    El Cuartel Secreto (2022) WEB-DL 4K UHD HDR Latino

    2022
    El Cuartel Secreto (2022) WEB-DL 4K UHD HDR Latino

    1h 44m 2022

    Descargar El Cuartel Secreto (2022) WEB-DL 4K UHD HDR Latino. Mientras pasan el rato después de la escuela,...

    Director: Henry Joost

    Género: 4K HDR

    Actores: Zeb Slone

  • El Cuartel Secreto (2022) WEB-DL 1080p Latino

    El Cuartel Secreto (2022) WEB-DL 1080p Latino

    2022
    El Cuartel Secreto (2022) WEB-DL 1080p Latino

    1h 44m 2022

    Descargar El Cuartel Secreto (2022) WEB-DL 1080p Latino. Mientras pasan el rato después de la escuela,...

    Director: Henry Joost

    Género: Acción

    Actores: Zeb Slone

  • Men in Black (1997) REMUX 4K HDR Latino – CMHDD

    Men in Black (1997) REMUX 4K HDR Latino – CMHDD

    1997
    Men in Black (1997) REMUX 4K HDR Latino – CMHDD

    1h 34m 1997

    Durante muchos años los extraterrestres han vivido en la Tierra, mezclados con los humanos, sin que...

    Director: Tyrone S. Walker

    Género: Acción

    Actores: Willie C. Carpenter

  • La Máquina infernal (2022) WEB-DL 1080p Latino

    La Máquina infernal (2022) WEB-DL 1080p Latino

    2022
    La Máquina infernal (2022) WEB-DL 1080p Latino

    1h 47m 2022

    Descargar La Máquina infernal (2022) WEB-DL 1080p Latino. Un fan obsesivo saca de su escondite al solitario...

    Director: Andrew Hunt

    Género: Suspenso

    Actores: Rocco Salata

  • Borrego: Sal Del Camino (2022) HD 1080p Latino

    Borrego: Sal Del Camino (2022) HD 1080p Latino

    2022
    Borrego: Sal Del Camino (2022) HD 1080p Latino

    1h 42m 2022

    Descargar Borrego: Sal Del Camino (2022) HD 1080p Latino. Una joven botánica se traslada a un pequeño...

    Director: Jesse Harris

    Género: Crimen

    Actores: Olivia Trujillo

descargar Ong Bak (2003) REMUX 1080p Latino – CMHDD Full 1080p 1080p gratis, Ong Bak (2003) REMUX 1080p Latino – CMHDD Full 1080p mega 1 link, Ong Bak (2003) REMUX 1080p Latino – CMHDD Full 1080p pelicula completa, descargar Ong Bak (2003) REMUX 1080p Latino – CMHDD Full 1080p gratis en mega.

Ong Bak (2003) REMUX 1080p Latino – CMHDD pelicula full hd, Ong Bak (2003) REMUX 1080p Latino – CMHDD mega latino, Ong Bak (2003) REMUX 1080p Latino – CMHDD 4k latino, Ong Bak (2003) REMUX 1080p Latino – CMHDD pelicula completa, Ong Bak (2003) REMUX 1080p Latino – CMHDD descargar gratis, descargar Ong Bak (2003) REMUX 1080p Latino – CMHDD pelicula latino, Ong Bak (2003) REMUX 1080p Latino – CMHDD 1 link mega, Ong Bak (2003) REMUX 1080p Latino – CMHDD 1 link google drive, Ong Bak (2003) REMUX 1080p Latino – CMHDD hd 1080p latino.
Comentarios 0