×

¿Problemas para descargar con Mozilla, EDGE? Deshabilita la opción "Abrir vinculos en una pestaña nueva" tal como lo muestra ésta imagen.

Ong Bak 2 (2008) REMUX 1080p Latino – CMHDD

137 vistas

Información de Ong Bak 2 (2008) REMUX 1080p Latino – CMHDD

Datos de la película

  • Calidad: Full 1080p
  • Audio: Se especifica abajo de la Sinopsis
  • Subtitulos: Español Latino PGS
  • Resolución: 1920x1080p
  • Formato: MKV
  • Codec: H.264
  • Encoder: Dracarys
  • Mediainfo: Clic para Mostrar Datos Ver
  • Format                      : Matroska
    Format version              : Version 4
    File size                   : 20.0 GiB
    Duration                    : 1 h 37 min
    Overall bit rate mode       : Variable
    Overall bit rate            : 29.2 Mb/s
    Movie name                  : Ong Bak 2 (2008) REMUX 1080p Latino - CMHDD
    Encoded date                : UTC 2021-10-31 22:53:24
    Writing application         : mkvmerge v17.0.0 ('Be Ur Friend') 64-bit
    Writing library             : libebml v1.3.5 + libmatroska v1.4.8

    Video
    ID                          : 1
    Format                      : VC-1
    Format profile              : Advanced@L3
    Codec ID                    : V_MS/VFW/FOURCC / WVC1
    Codec ID/Hint               : Microsoft
    Duration                    : 1 h 37 min
    Bit rate                    : 24.0 Mb/s
    Width                       : 1 920 pixels
    Height                      : 1 080 pixels
    Display aspect ratio        : 16:9
    Frame rate mode             : Constant
    Frame rate                  : 23.976 (24000/1001) FPS
    Color space                 : YUV
    Chroma subsampling          : 4:2:0
    Bit depth                   : 8 bits
    Scan type                   : Progressive
    Compression mode            : Lossy
    Bits/(Pixel*Frame)          : 0.482
    Stream size                 : 16.4 GiB (82%)
    Default                     : Yes
    Forced                      : No

    Audio #1
    ID                          : 2
    Format                      : DTS XLL
    Format/Info                 : Digital Theater Systems
    Commercial name             : DTS-HD Master Audio
    Codec ID                    : A_DTS
    Duration                    : 1 h 37 min
    Bit rate mode               : Variable
    Bit rate                    : 2 657 kb/s
    Channel(s)                  : 6 channels
    Channel layout              : C L R Ls Rs LFE
    Sampling rate               : 48.0 kHz
    Frame rate                  : 93.750 FPS (512 SPF)
    Bit depth                   : 24 bits
    Compression mode            : Lossless
    Stream size                 : 1.82 GiB (9%)
    Language                    : Thai
    Default                     : No
    Forced                      : No

    Audio #2
    ID                          : 3
    Format                      : DTS XLL
    Format/Info                 : Digital Theater Systems
    Commercial name             : DTS-HD Master Audio
    Codec ID                    : A_DTS
    Duration                    : 1 h 37 min
    Bit rate mode               : Variable
    Bit rate                    : 2 356 kb/s
    Channel(s)                  : 6 channels
    Channel layout              : C L R Ls Rs LFE
    Sampling rate               : 48.0 kHz
    Frame rate                  : 93.750 FPS (512 SPF)
    Bit depth                   : 16 bits
    Compression mode            : Lossless
    Stream size                 : 1.61 GiB (8%)
    Language                    : English
    Default                     : No
    Forced                      : No

    Audio #3
    ID                          : 4
    Format                      : AC-3
    Format/Info                 : Audio Coding 3
    Commercial name             : Dolby Digital
    Codec ID                    : A_AC3
    Duration                    : 1 h 37 min
    Bit rate mode               : Constant
    Bit rate                    : 256 kb/s
    Channel(s)                  : 2 channels
    Channel layout              : L R
    Sampling rate               : 48.0 kHz
    Frame rate                  : 31.250 FPS (1536 SPF)
    Compression mode            : Lossy
    Stream size                 : 179 MiB (1%)
    Language                    : Spanish
    Service kind                : Complete Main
    Default                     : Yes
    Forced                      : No

    Text
    ID                          : 5
    Format                      : PGS
    Muxing mode                 : zlib
    Codec ID                    : S_HDMV/PGS
    Codec ID/Info               : Picture based subtitle format used on BDs/HD-DVDs
    Duration                    : 1 h 30 min
    Bit rate                    : 9 726 b/s
    Count of elements           : 624
    Stream size                 : 6.33 MiB (0%)
    Language                    : Spanish
    Default                     : Yes
    Forced                      : No

    Menu
    00:00:00.000                : en:Chapter 1
    00:05:28.036                : en:Chapter 2
    00:14:08.931                : en:Chapter 3
    00:24:14.161                : en:Chapter 4
    00:35:32.004                : en:Chapter 5
    00:45:12.584                : en:Chapter 6
    00:53:42.552                : en:Chapter 7
    01:03:28.513                : en:Chapter 8
    01:13:35.953                : en:Chapter 9
    01:20:31.451                : en:Chapter 10
    01:27:32.705                : en:Chapter 11
    01:33:19.927                : en:Chapter 12

  • Peso: 20.0 GiB

Sinopsis

Tien es un niño que huye para salvar su vida. No entiende por qué, pero toda su familia ha sido asesinada y no tiene dónde esconderse. Capturado por comerciantes de esclavos, su coraje y su espíritu de luchador le salvarán de una muerte segura. Tien es rescatado por una cuadrilla de bandoleros que lo acogerán y lo instruirán en las artes marciales, convirtiéndose en un gran guerrero. Ya adulto, Tien (Tony Jaa) quiere encontrar respuesta a los misterios de su infancia y, sobre todo, quiere saciar su sed de venganza por la cruel muerte de sus padres… Continuación de la aclamada película de artes marciales «Ong Bak». En esta ocasión el protagonista, Tony Jaa, también se encargará de la dirección.

 

Latino: AC3 2.0  –  Inglés: DTS 5.1  –  Tailandés: DTS 5.1

Ficha técnica

Video trailer de la película

Enlaces de descarga

Rip de Bluray

Descargar Ong Bak 2 (2008) REMUX 1080p Latino – CMHDD


Aportes de DPeliculasHDmega la pass es:dpeliculashdmega.org Aportes de CinemaniaHD la pass es:cinemaniahdd.com
Guardado en : Acción , Aventura , Suspenso

Películas relacionadas

Ong Bak 2 (2008) REMUX 1080p Latino – CMHDD pelicula full hd, Ong Bak 2 (2008) REMUX 1080p Latino – CMHDD mega latino, Ong Bak 2 (2008) REMUX 1080p Latino – CMHDD 4k latino, Ong Bak 2 (2008) REMUX 1080p Latino – CMHDD pelicula completa, Ong Bak 2 (2008) REMUX 1080p Latino – CMHDD descargar gratis, descargar Ong Bak 2 (2008) REMUX 1080p Latino – CMHDD pelicula latino, Ong Bak 2 (2008) REMUX 1080p Latino – CMHDD 1 link mega, Ong Bak 2 (2008) REMUX 1080p Latino – CMHDD 1 link google drive, Ong Bak 2 (2008) REMUX 1080p Latino – CMHDD hd 1080p latino.
Comentarios 0