×

¿Problemas para descargar con Mozilla, EDGE? Deshabilita la opción "Abrir vinculos en una pestaña nueva" tal como lo muestra ésta imagen.

One Winter Weekend (2018) AMZN WEB-DL 1080p Latino

146 vistas

Información de One Winter Weekend (2018) AMZN WEB-DL 1080p Latino

Datos de la película

  • Calidad: 1080p
  • Audio: Español Latino AC3 2.0 WEB-DL - Ingles AC3 2.0 WEB-DL
  • Subtitulos: Español Latino SRT
  • Resolución: 1920x1080
  • Formato: MKV
  • Codec: H.264
  • Encoder: cinemaniahdd
  • Mediainfo: Clic para Mostrar Datos Ver
  • One Winter Weekend (2018) AMZN WEB-DL 1080p Latino [CNMNHDD].mkv
    Format                      : Matroska
    Format version              : Version 4
    File size                   : 6.04 GiB
    Duration                    : 1 h 27 min
    Overall bit rate            : 9 931 kb/s
    Movie name                  : One Winter Weekend (2018) - CinemaniaHDD.Net
    Encoded date                : UTC 2021-11-01 23:32:01
    Writing application         : mkvmerge v59.0.0 ('Shining Star') 64-bit
    Writing library             : libebml v1.4.2 + libmatroska v1.6.4

    Video
    ID                          : 1
    Format                      : AVC
    Format/Info                 : Advanced Video Codec
    Format profile              : High@L4
    Format settings             : CABAC / 4 Ref Frames
    Format settings, CABAC      : Yes
    Format settings, Reference  : 4 frames
    Codec ID                    : V_MPEG4/ISO/AVC
    Duration                    : 1 h 27 min
    Bit rate mode               : Constant
    Bit rate                    : 9 481 kb/s
    Nominal bit rate            : 10 000 kb/s
    Width                       : 1 920 pixels
    Height                      : 1 080 pixels
    Display aspect ratio        : 16:9
    Frame rate mode             : Constant
    Frame rate                  : 23.976 (24000/1001) FPS
    Color space                 : YUV
    Chroma subsampling          : 4:2:0
    Bit depth                   : 8 bits
    Scan type                   : Progressive
    Bits/(Pixel*Frame)          : 0.191
    Stream size                 : 5.77 GiB (95%)
    Title                       : CinemaniaHDD
    Default                     : Yes
    Forced                      : No
    Color range                 : Limited
    Color primaries             : BT.709
    Transfer characteristics    : BT.709
    Matrix coefficients         : BT.709

    Audio #1
    ID                          : 2
    Format                      : E-AC-3
    Format/Info                 : Enhanced AC-3
    Commercial name             : Dolby Digital Plus
    Codec ID                    : A_EAC3
    Duration                    : 1 h 27 min
    Bit rate mode               : Constant
    Bit rate                    : 224 kb/s
    Channel(s)                  : 2 channels
    Channel layout              : L R
    Sampling rate               : 48.0 kHz
    Frame rate                  : 31.250 FPS (1536 SPF)
    Compression mode            : Lossy
    Stream size                 : 140 MiB (2%)
    Title                       : Español latino [CinemaniaHDD]
    Language                    : Spanish
    Service kind                : Complete Main
    Default                     : Yes
    Forced                      : No

    Audio #2
    ID                          : 3
    Format                      : E-AC-3
    Format/Info                 : Enhanced AC-3
    Commercial name             : Dolby Digital Plus
    Codec ID                    : A_EAC3
    Duration                    : 1 h 27 min
    Bit rate mode               : Constant
    Bit rate                    : 224 kb/s
    Channel(s)                  : 2 channels
    Channel layout              : L R
    Sampling rate               : 48.0 kHz
    Frame rate                  : 31.250 FPS (1536 SPF)
    Compression mode            : Lossy
    Stream size                 : 140 MiB (2%)
    Title                       : Inglés [CinemaniaHDD]
    Language                    : English
    Service kind                : Complete Main
    Default                     : No
    Forced                      : No

    Text
    ID                          : 4
    Format                      : UTF-8
    Codec ID                    : S_TEXT/UTF8
    Codec ID/Info               : UTF-8 Plain Text
    Duration                    : 1 h 25 min
    Bit rate                    : 81 b/s
    Count of elements           : 1325
    Stream size                 : 51.0 KiB (0%)
    Title                       : Español latino [CinemaniaHDD]
    Language                    : Spanish
    Default                     : No
    Forced                      : No

     

  • Peso: 6.04 GiB

Sinopsis

Cara, una reportera de viajes de una revista, se dirige a un parador de esquí con su mejor amiga para olvidarse de una mala ruptura y encontrar la inspiración para su siguiente artículo. Allí encontrarán que ambas han reservado habitación junto a dos hombres desconocidos.

Ficha técnica

Video trailer de la película

Enlaces de descarga

Rip de Bluray

Descargar One Winter Weekend (2018) AMZN WEB-DL 1080p Latino




Aportes de DPeliculasHDmega la pass es:dpeliculashdmega.org Aportes de CinemaniaHD la pass es:cinemaniahdd.com
Guardado en : Película de TV , Romance

Películas relacionadas

  • Holiday Harmony (2022) HMAX WEB-DL 1080p Latino

    Holiday Harmony (2022) HMAX WEB-DL 1080p Latino

    2022
    Holiday Harmony (2022) HMAX WEB-DL 1080p Latino

    0h 0m 2022

    Gail es escritora y cantante, y tiene la posibilidad de competir por una oportunidad única, así que...

    Director: Shaun Paul Piccinino

    Género: Comedia

    Actores: Sophia Reid-Gantzert

  • El Diario De Noel (2022) NF WEB-DL 1080p Latino

    El Diario De Noel (2022) NF WEB-DL 1080p Latino

    2022
    El Diario De Noel (2022) NF WEB-DL 1080p Latino

    1h 39m 2022

    En Navidad, mientras vacía la casa de su niñez, un escritor conoce a una mujer que busca a su madre...

    Director: Charles Shyer

    Género: Comedia

    Actores: Treat Williams

  • Bros (2022) HD 1080p Latino

    Bros (2022) HD 1080p Latino

    2022
    Bros (2022) HD 1080p Latino

    1h 55m 2022

    Descargar Bros (2022) HD 1080p Latino. Dos hombres con problemas para comprometerse intentan una relación.

    Director: Nicholas Stoller

    Género: Comedia

    Actores: Ts Madison

  • Bros (2022) PLACEBO Full HD 1080p Latino

    Bros (2022) PLACEBO Full HD 1080p Latino

    2022
    Bros (2022) PLACEBO Full HD 1080p Latino

    1h 55m 2022

    Descargar Bros (2022) PLACEBO Full HD 1080p Latino. Dos hombres con problemas para comprometerse intentan...

    Director: Nicholas Stoller

    Género: Comedia

    Actores: Ts Madison

descargar One Winter Weekend (2018) AMZN WEB-DL 1080p Latino 1080p 1080p gratis, One Winter Weekend (2018) AMZN WEB-DL 1080p Latino 1080p mega 1 link, One Winter Weekend (2018) AMZN WEB-DL 1080p Latino 1080p pelicula completa, descargar One Winter Weekend (2018) AMZN WEB-DL 1080p Latino 1080p gratis en mega.

One Winter Weekend (2018) AMZN WEB-DL 1080p Latino pelicula full hd, One Winter Weekend (2018) AMZN WEB-DL 1080p Latino mega latino, One Winter Weekend (2018) AMZN WEB-DL 1080p Latino 4k latino, One Winter Weekend (2018) AMZN WEB-DL 1080p Latino pelicula completa, One Winter Weekend (2018) AMZN WEB-DL 1080p Latino descargar gratis, descargar One Winter Weekend (2018) AMZN WEB-DL 1080p Latino pelicula latino, One Winter Weekend (2018) AMZN WEB-DL 1080p Latino 1 link mega, One Winter Weekend (2018) AMZN WEB-DL 1080p Latino 1 link google drive, One Winter Weekend (2018) AMZN WEB-DL 1080p Latino hd 1080p latino.
Comentarios 0