×

¿Problemas para descargar con Mozilla, EDGE? Deshabilita la opción "Abrir vinculos en una pestaña nueva" tal como lo muestra ésta imagen.

One Ranger (2023) REMUX 1080p Latino

95 vistas

Información de One Ranger (2023) REMUX 1080p Latino

Datos de la película

  • Calidad: Full 1080p
  • Audio: Español Latino AC3 5.1 WEB-DL - Ingles DTS 5.1 BLURAY
  • Subtitulos: Español Latino PGS - Ingles PGS
  • Resolución: 1920x1080p
  • Formato: MKV
  • Codec: H.264
  • Encoder: Melkor
  • Mediainfo: Clic para Mostrar Datos Ver
  • One Ranger (2023) REMUX 1080p Latino.mkv
    Format                      : Matroska
    Format version              : Version 4
    File size                   : 19.7 GiB
    Duration                    : 1 h 36 min
    Overall bit rate mode       : Variable
    Overall bit rate            : 29.3 Mb/s
    Movie name                  : One Ranger (2023) CinemaniaHDD.Net
    Encoded date                : UTC 2023-10-28 05:48:37
    Writing application         : mkvmerge v56.1.0 ('My Friend') 64-bit
    Writing library             : libebml v1.4.2 + libmatroska v1.6.4
    Attachments                 : CINEMANIAHD.png
    Site                        : CinemaniaHDD.Net
    Uploader                    : Melkor

    Video
    ID                          : 1
    Format                      : AVC
    Format/Info                 : Advanced Video Codec
    Format profile              : High@L4.1
    Format settings             : CABAC / 4 Ref Frames
    Format settings, CABAC      : Yes
    Format settings, Reference  : 4 frames
    Codec ID                    : V_MPEG4/ISO/AVC
    Duration                    : 1 h 36 min
    Bit rate mode               : Variable
    Bit rate                    : 25.0 Mb/s
    Maximum bit rate            : 35.0 Mb/s
    Width                       : 1 920 pixels
    Height                      : 1 080 pixels
    Display aspect ratio        : 16:9
    Frame rate mode             : Constant
    Frame rate                  : 23.976 (24000/1001) FPS
    Standard                    : NTSC
    Color space                 : YUV
    Chroma subsampling          : 4:2:0
    Bit depth                   : 8 bits
    Scan type                   : Progressive
    Bits/(Pixel*Frame)          : 0.503
    Stream size                 : 16.8 GiB (85%)
    Title                       : REMUX HD1080p [CinemaniaHDD]
    Default                     : Yes
    Forced                      : Yes
    Color range                 : Limited
    Color primaries             : BT.709
    Transfer characteristics    : BT.709
    Matrix coefficients         : BT.709

    Audio #1
    ID                          : 2
    Format                      : AC-3
    Format/Info                 : Audio Coding 3
    Commercial name             : Dolby Digital
    Codec ID                    : A_AC3
    Duration                    : 1 h 36 min
    Bit rate mode               : Constant
    Bit rate                    : 384 kb/s
    Channel(s)                  : 6 channels
    Channel layout              : L R C LFE Ls Rs
    Sampling rate               : 48.0 kHz
    Frame rate                  : 31.250 FPS (1536 SPF)
    Compression mode            : Lossy
    Stream size                 : 264 MiB (1%)
    Title                       : Español Latino [CinemaniaHDD]
    Language                    : Spanish
    Service kind                : Complete Main
    Default                     : Yes
    Forced                      : Yes

    Audio #2
    ID                          : 3
    Format                      : DTS XLL
    Format/Info                 : Digital Theater Systems
    Commercial name             : DTS-HD Master Audio
    Codec ID                    : A_DTS
    Duration                    : 1 h 36 min
    Bit rate mode               : Variable
    Bit rate                    : 3 893 kb/s
    Channel(s)                  : 6 channels
    Channel layout              : C L R Ls Rs LFE
    Sampling rate               : 48.0 kHz
    Frame rate                  : 93.750 FPS (512 SPF)
    Bit depth                   : 24 bits
    Compression mode            : Lossless
    Stream size                 : 2.61 GiB (13%)
    Title                       : Ingles [CinemaniaHDD]
    Language                    : English
    Default                     : No
    Forced                      : No

    Text #1
    ID                          : 4
    Format                      : PGS
    Muxing mode                 : zlib
    Codec ID                    : S_HDMV/PGS
    Codec ID/Info               : Picture based subtitle format used on BDs/HD-DVDs
    Duration                    : 1 h 35 min
    Bit rate                    : 29.9 kb/s
    Count of elements           : 1860
    Stream size                 : 20.3 MiB (0%)
    Title                       : Español-PGS [CinemaniaHDD]
    Language                    : Spanish
    Default                     : No
    Forced                      : No

    Text #2
    ID                          : 5
    Format                      : PGS
    Muxing mode                 : zlib
    Codec ID                    : S_HDMV/PGS
    Codec ID/Info               : Picture based subtitle format used on BDs/HD-DVDs
    Duration                    : 1 h 35 min
    Bit rate                    : 33.8 kb/s
    Count of elements           : 2402
    Stream size                 : 23.0 MiB (0%)
    Title                       : Ingles [CinemaniaHDD]
    Language                    : English
    Default                     : No
    Forced                      : No

    Text #3
    ID                          : 6
    Format                      : UTF-8
    Codec ID                    : S_TEXT/UTF8
    Codec ID/Info               : UTF-8 Plain Text
    Duration                    : 1 h 17 min
    Bit rate                    : 0 b/s
    Count of elements           : 13
    Stream size                 : 552 Bytes (0%)
    Title                       : Forzados-SRT [CinemaniaHDD]
    Language                    : Spanish
    Default                     : Yes
    Forced                      : Yes

    Text #4
    ID                          : 7
    Format                      : UTF-8
    Codec ID                    : S_TEXT/UTF8
    Codec ID/Info               : UTF-8 Plain Text
    Duration                    : 1 h 30 min
    Bit rate                    : 56 b/s
    Count of elements           : 1042
    Stream size                 : 37.5 KiB (0%)
    Title                       : Español-SRT [CinemaniaHDD]
    Language                    : Spanish
    Default                     : No
    Forced                      : No

    Menu
    00:00:00.000                : Chapter 01
    00:07:05.425                : Chapter 02
    00:11:55.340                : Chapter 03
    00:16:09.969                : Chapter 04
    00:20:26.225                : Chapter 05
    00:27:02.621                : Chapter 06
    00:36:35.402                : Chapter 07
    00:40:34.432                : Chapter 08
    00:48:08.886                : Chapter 09
    00:54:37.274                : Chapter 10
    01:02:18.234                : Chapter 11
    01:07:52.068                : Chapter 12
    01:12:48.990                : Chapter 13
    01:17:24.640                : Chapter 14
    01:22:07.923                : Chapter 15
    01:31:11.466                : Chapter 16

  • Peso: 19.7 GiB

Sinopsis

Descargar One Ranger (2023) REMUX 1080p Latino. Sigue a una Texas Ranger Jane cuando es reclutada por la inteligencia británica para rastrear a un peligroso terrorista y evitar que ataque Londres.

Ficha técnica

Video trailer de la película

Enlaces de descarga

Rip de Bluray

Descargar One Ranger (2023) REMUX 1080p Latino




Aportes de DPeliculasHDmega la pass es:dpeliculashdmega.org Aportes de CinemaniaHD la pass es:cinemaniahdd.com Aportes recientes:cinemaniahdd.net
Guardado en : Acción , Remux , Suspenso

Películas relacionadas

descargar One Ranger (2023) REMUX 1080p Latino Full 1080p 1080p gratis, One Ranger (2023) REMUX 1080p Latino Full 1080p mega 1 link, One Ranger (2023) REMUX 1080p Latino Full 1080p pelicula completa, descargar One Ranger (2023) REMUX 1080p Latino Full 1080p gratis en mega.

One Ranger (2023) REMUX 1080p Latino pelicula full hd, One Ranger (2023) REMUX 1080p Latino mega latino, One Ranger (2023) REMUX 1080p Latino 4k latino, One Ranger (2023) REMUX 1080p Latino pelicula completa, One Ranger (2023) REMUX 1080p Latino descargar gratis, descargar One Ranger (2023) REMUX 1080p Latino pelicula latino, One Ranger (2023) REMUX 1080p Latino 1 link mega, One Ranger (2023) REMUX 1080p Latino 1 link google drive, One Ranger (2023) REMUX 1080p Latino hd 1080p latino.
Comentarios 0