×

¿Problemas para descargar con Mozilla, EDGE? Deshabilita la opción "Abrir vinculos en una pestaña nueva" tal como lo muestra ésta imagen.

One Night in Miami… (2020) AMZN WEB-DL 1080p Latino

220 vistas

Información de One Night in Miami… (2020) AMZN WEB-DL 1080p Latino

Datos de la película

  • Calidad: WEBDL
  • Audio: Español Latino E-AC3 5.1 AMAZON - Ingles E-AC3 5.1 AMAZON
  • Subtitulos: Español Latino SRT- FORZADOS SRT
  • Resolución: 1920x800
  • Formato: MKV
  • Codec: H.264
  • Encoder: cinemaniahdd
  • Mediainfo: Clic para Mostrar Datos Ver
  • One Night in Miami... (2020) AMZN WEB-DL 1080p Latino [CNMNHDD].mkv
    Format                      : Matroska
    Format version              : Version 4
    File size                   : 7.16 GiB
    Duration                    : 1 h 54 min
    Overall bit rate            : 8 966 kb/s
    Movie name                  : One Night in Miami... (2020) - CinemaniaHDD.Net
    Encoded date                : UTC 2021-01-15 01:04:51
    Writing application         : mkvmerge v51.0.0 ('I Wish') 64-bit
    Writing library             : libebml v1.4.0 + libmatroska v1.6.2

    Video
    ID                          : 1
    Format                      : AVC
    Format/Info                 : Advanced Video Codec
    Format profile              : High@L4
    Format settings             : CABAC / 4 Ref Frames
    Format settings, CABAC      : Yes
    Format settings, Reference  : 4 frames
    Codec ID                    : V_MPEG4/ISO/AVC
    Duration                    : 1 h 54 min
    Bit rate mode               : Constant
    Bit rate                    : 7 043 kb/s
    Nominal bit rate            : 10 000 kb/s
    Width                       : 1 920 pixels
    Height                      : 800 pixels
    Display aspect ratio        : 2.40:1
    Frame rate mode             : Constant
    Frame rate                  : 23.976 (24000/1001) FPS
    Color space                 : YUV
    Chroma subsampling          : 4:2:0
    Bit depth                   : 8 bits
    Scan type                   : Progressive
    Bits/(Pixel*Frame)          : 0.191
    Stream size                 : 5.62 GiB (79%)
    Title                       : CinemaniaHDD
    Default                     : Yes
    Forced                      : No
    Color range                 : Limited
    Color primaries             : BT.709
    Transfer characteristics    : BT.709
    Matrix coefficients         : BT.709

    Audio #1
    ID                          : 2
    Format                      : AC-3
    Format/Info                 : Audio Coding 3
    Commercial name             : Dolby Digital
    Codec ID                    : A_AC3
    Duration                    : 1 h 54 min
    Bit rate mode               : Constant
    Bit rate                    : 640 kb/s
    Channel(s)                  : 6 channels
    Channel layout              : L R C LFE Ls Rs
    Sampling rate               : 48.0 kHz
    Frame rate                  : 31.250 FPS (1536 SPF)
    Compression mode            : Lossy
    Stream size                 : 523 MiB (7%)
    Title                       : Español latino - AC3 [CinemaniaHDD]
    Language                    : Spanish
    Service kind                : Complete Main
    Default                     : Yes
    Forced                      : No

    Audio #2
    ID                          : 3
    Format                      : E-AC-3
    Format/Info                 : Enhanced AC-3
    Commercial name             : Dolby Digital Plus
    Codec ID                    : A_EAC3
    Duration                    : 1 h 54 min
    Bit rate mode               : Constant
    Bit rate                    : 640 kb/s
    Channel(s)                  : 6 channels
    Channel layout              : L R C LFE Ls Rs
    Sampling rate               : 48.0 kHz
    Frame rate                  : 31.250 FPS (1536 SPF)
    Compression mode            : Lossy
    Stream size                 : 523 MiB (7%)
    Title                       : Español latino - E-AC3 [CinemaniaHDD]
    Language                    : Spanish
    Service kind                : Complete Main
    Default                     : No
    Forced                      : No

    Audio #3
    ID                          : 4
    Format                      : E-AC-3
    Format/Info                 : Enhanced AC-3
    Commercial name             : Dolby Digital Plus
    Codec ID                    : A_EAC3
    Duration                    : 1 h 54 min
    Bit rate mode               : Constant
    Bit rate                    : 640 kb/s
    Channel(s)                  : 6 channels
    Channel layout              : L R C LFE Ls Rs
    Sampling rate               : 48.0 kHz
    Frame rate                  : 31.250 FPS (1536 SPF)
    Compression mode            : Lossy
    Stream size                 : 523 MiB (7%)
    Title                       : Inglés - E-AC3 [CinemaniaHDD]
    Language                    : English
    Service kind                : Complete Main
    Default                     : No
    Forced                      : No

    Text #1
    ID                          : 5
    Format                      : UTF-8
    Codec ID                    : S_TEXT/UTF8
    Codec ID/Info               : UTF-8 Plain Text
    Duration                    : 1 h 47 min
    Bit rate                    : 0 b/s
    Count of elements           : 14
    Stream size                 : 528 Bytes (0%)
    Title                       : Forzados [CinemaniaHDD]
    Language                    : Spanish
    Default                     : Yes
    Forced                      : Yes

    Text #2
    ID                          : 6
    Format                      : UTF-8
    Codec ID                    : S_TEXT/UTF8
    Codec ID/Info               : UTF-8 Plain Text
    Duration                    : 1 h 53 min
    Bit rate                    : 65 b/s
    Count of elements           : 1611
    Stream size                 : 54.2 KiB (0%)
    Title                       : Español latino [CinemaniaHDD]
    Language                    : Spanish
    Default                     : No
    Forced                      : No

    Text #3
    ID                          : 7
    Format                      : UTF-8
    Codec ID                    : S_TEXT/UTF8
    Codec ID/Info               : UTF-8 Plain Text
    Duration                    : 1 h 53 min
    Bit rate                    : 98 b/s
    Count of elements           : 2550
    Stream size                 : 82.1 KiB (0%)
    Title                       : Inglés [CinemaniaHDD]
    Language                    : English
    Default                     : No
    Forced                      : No

    Menu
    00:00:00.000                : en:Amazon Original / en:Amazon Original
    00:00:22.000                : en:Studio Logos / en:Studio Logos
    00:00:41.000                : en:Cassius Clay vs The Hammer / en:Cassius Clay vs The Hammer
    00:03:31.000                : en:Getting ready to perform / en:Getting ready to perform
    00:05:12.000                : en:Performing at the Copa / en:Performing at the Copa
    00:06:57.000                : en:Post performance frustration / en:Post performance frustration
    00:07:44.000                : en:Jim Brown visits an old friend / en:Jim Brown visits an old friend
    00:12:56.000                : en:Malcolm returns home / en:Malcolm returns home
    00:16:48.000                : en:Photoshoot with Cassius / en:Photoshoot with Cassius
    00:19:26.000                : en:Sam and Barbara in the hotel / en:Sam and Barbara in the hotel
    00:21:55.000                : en:A moment of prayer / en:A moment of prayer
    00:26:45.000                : en:Cassius vs. Liston / en:Cassius vs. Liston
    00:30:17.000                : en:Sam arrives / en:Sam arrives
    00:32:47.000                : en:A time for reflection & community / en:A time for reflection & community
    00:41:06.000                : en:Getting the party started / en:Getting the party started
    00:42:54.000                : en:A phone call home / en:A phone call home
    00:44:18.000                : en:Joining the Muslim Brotherhood / en:Joining the Muslim Brotherhood
    00:47:45.000                : en:Tears of joy / en:Tears of joy
    00:48:56.000                : en:Breaking into acting / en:Breaking into acting
    00:50:45.000                : en:Malcolm is happy / en:Malcolm is happy
    00:52:02.000                : en:Suspicious followers / en:Suspicious followers
    00:53:30.000                : en:A feeling in the air / en:A feeling in the air
    01:02:33.000                : en:Malcolm lectures on the struggle / en:Malcolm lectures on the struggle
    01:09:38.000                : en:Nobody can stand on the fence / en:Nobody can stand on the fence
    01:17:43.000                : en:Weaponizing the message / en:Weaponizing the message
    01:23:12.000                : en:Black power / en:Black power
    01:26:23.000                : en:Remembering Sam's gig in Boston / en:Remembering Sam's gig in Boston
    01:33:59.000                : en:Leaving The Nation / en:Leaving The Nation
    01:39:13.000                : en:Sam wants to do his part / en:Sam wants to do his part
    01:40:42.000                : en:Talking to reporters / en:Talking to reporters
    01:41:42.000                : en:The after party / en:The after party
    01:42:53.000                : en:A change is gonna come / en:A change is gonna come
    01:47:52.000                : en:Acknowledgement / en:Acknowledgement
    01:48:11.000                : en:End Credits / en:End Credits

     

  • Peso: 7.16 GiB

Sinopsis

Tras la derrota de Cassius Clay de Sonny Liston en 1964, el boxeador se reúne con Malcolm X, Sam Cooke y Jim Brown para cambiar el curso de la historia en el segregado Sur.

Ficha técnica

  • Titulo original: One Night in Miami...
  • Fecha de lanzamiento: 08-01-2021 (United States of America)
  • Director: Regina King
  • Género: Drama

Video trailer de la película

Enlaces de descarga

Rip de Bluray

Descargar One Night in Miami… (2020) AMZN WEB-DL 1080p Latino




Aportes de DPeliculasHDmega la pass es:dpeliculashdmega.org Aportes de CinemaniaHD la pass es:cinemaniahdd.com
Guardado en : Drama

Películas relacionadas

  • Togo (2022) NF WEB-DL 1080p Latino

    Togo (2022) NF WEB-DL 1080p Latino

    2022
    Togo (2022) NF WEB-DL 1080p Latino

    1h 35m 2022

    Descargar Togo (2022) NF WEB-DL 1080p Latino. Los narcos de poca monta están copando las calles de Montevideo...

    Director: Adrián Caetano

    Género: Crimen

    Actores: Tito Prieto

  • El Ultimo Juego (2021) WEB-DL 1080p Latino

    El Ultimo Juego (2021) WEB-DL 1080p Latino

    2021
    El Ultimo Juego (2021) WEB-DL 1080p Latino

    1h 21m 2021

    Descargar El Ultimo Juego (2021) WEB-DL 1080p Latino. 6 extraños se despiertan dentro de una habitación...

    Director: John David Moffat IV

    Género: Drama

    Actores: Yasmin Irvine

descargar One Night in Miami… (2020) AMZN WEB-DL 1080p Latino WEBDL 1080p gratis, One Night in Miami… (2020) AMZN WEB-DL 1080p Latino WEBDL mega 1 link, One Night in Miami… (2020) AMZN WEB-DL 1080p Latino WEBDL pelicula completa, descargar One Night in Miami… (2020) AMZN WEB-DL 1080p Latino WEBDL gratis en mega.

One Night in Miami… (2020) AMZN WEB-DL 1080p Latino pelicula full hd, One Night in Miami… (2020) AMZN WEB-DL 1080p Latino mega latino, One Night in Miami… (2020) AMZN WEB-DL 1080p Latino 4k latino, One Night in Miami… (2020) AMZN WEB-DL 1080p Latino pelicula completa, One Night in Miami… (2020) AMZN WEB-DL 1080p Latino descargar gratis, descargar One Night in Miami… (2020) AMZN WEB-DL 1080p Latino pelicula latino, One Night in Miami… (2020) AMZN WEB-DL 1080p Latino 1 link mega, One Night in Miami… (2020) AMZN WEB-DL 1080p Latino 1 link google drive, One Night in Miami… (2020) AMZN WEB-DL 1080p Latino hd 1080p latino.
Comentarios 0