One Day at a Time (2019) Tercera Temporada WEBDL 1080p Latino

314 vistas
1 estrella2 estrellas3 estrellas4 estrellas5 estrellas (Ninguna valoración todavía)
Cargando…

Información de One Day at a Time (2019) Tercera Temporada WEBDL 1080p Latino

Datos de la película

  • Calidad: WEBDL
  • Audio: Español Latino AC3 5.1 Netflix - Ingles AC3 5.1 Netflix
  • Subtitulos: Español Latino SRT- FORZADOS SRT
  • Resolución: 1920x1080p
  • Formato: MKV
  • Codec: H.264
  • Encoder: CinemaniaHDD
  • Mediainfo: Clic para Mostrar Datos Ver
  • Format                      : Matroska
    Format version              : Version 4
    File size                   : 1.10 GiB
    Duration                    : 26 min 24 s
    Overall bit rate mode       : Variable
    Overall bit rate            : 5 943 kb/s
    Encoded date                : UTC 2019-02-08 13:03:28 / UTC 2019-01-25 13:58:17
    Writing application         : mkvmerge v11.0.0 ('Alive') 64bit
    Writing library             : libebml v1.3.4 + libmatroska v1.4.5 / Lavf58.0.0

    Video
    ID                          : 1
    Format                      : AVC
    Format/Info                 : Advanced Video Codec
    Format profile              : [email protected]
    Format settings             : CABAC / 3 Ref Frames
    Format settings, CABAC      : Yes
    Format settings, ReFrames   : 3 frames
    Codec ID                    : V_MPEG4/ISO/AVC
    Duration                    : 26 min 24 s
    Bit rate mode               : Variable
    Bit rate                    : 5 057 kb/s
    Nominal bit rate            : 5 360 kb/s
    Maximum bit rate            : 8 040 kb/s
    Width                       : 1 920 pixels
    Height                      : 1 080 pixels
    Display aspect ratio        : 16:9
    Frame rate mode             : Constant
    Frame rate                  : 23.976 (24000/1001) FPS
    Color space                 : YUV
    Chroma subsampling          : 4:2:0
    Bit depth                   : 8 bits
    Scan type                   : Progressive
    Bits/(Pixel*Frame)          : 0.102
    Stream size                 : 955 MiB (85%)
    Writing library             : x264 core 148 r2715 7e75228
    Encoding settings           : cabac=1 / ref=3 / deblock=1:0:0 / analyse=0x1:0x111 / me=umh / subme=10 / psy=1 / psy_rd=1.00:0.00 / mixed_ref=1 / me_range=24 / chroma_me=1 / trellis=2 / 8x8dct=0 / cqm=0 / deadzone=21,11 / fast_pskip=1 / chroma_qp_offset=-2 / threads=8 / lookahead_threads=1 / sliced_threads=0 / nr=0 / decimate=1 / interlaced=0 / bluray_compat=0 / stitchable=1 / constrained_intra=0 / bframes=2 / b_pyramid=0 / b_adapt=2 / b_bias=0 / direct=3 / weightb=1 / open_gop=0 / weightp=2 / keyint=48 / keyint_min=25 / scenecut=0 / intra_refresh=0 / rc_lookahead=48 / rc=2pass / mbtree=1 / bitrate=5360 / ratetol=1.0 / qcomp=0.50 / qpmin=6 / qpmax=51 / qpstep=4 / cplxblur=20.0 / qblur=0.5 / vbv_maxrate=8040 / vbv_bufsize=10720 / nal_hrd=vbr / filler=0 / ip_ratio=1.40 / aq=1:1.00
    Default                     : Yes
    Forced                      : No
    Statistics Tags Issue       : mkvmerge v11.0.0 ('Alive') 64bit 2019-02-08 13:03:28 / mkvmerge v11.0.0 ('Alive') 64bit 2019-02-08 13:03:28 / UTC 2019-01-25 13:58:17
    FromStats_BitRate           : 5173338
    FromStats_Duration          : 00:26:23.958000000
    FromStats_FrameCount        : 37977
    FromStats_StreamSize        : 1024293944

    Audio #1
    ID                          : 2
    Format                      : AC-3
    Format/Info                 : Audio Coding 3
    Commercial name             : Dolby Digital
    Codec ID                    : A_AC3
    Duration                    : 26 min 24 s
    Bit rate mode               : Constant
    Bit rate                    : 384 kb/s
    Channel(s)                  : 6 channels
    Channel layout              : L R C LFE Ls Rs
    Sampling rate               : 48.0 kHz
    Frame rate                  : 31.250 FPS (1536 SPF)
    Bit depth                   : 16 bits
    Compression mode            : Lossy
    Stream size                 : 72.5 MiB (6%)
    Language                    : Spanish
    Service kind                : Complete Main
    Default                     : Yes
    Forced                      : No
    Encoded date                : UTC 2019-01-30 00:47:06
    Statistics Tags Issue       : mkvmerge v11.0.0 ('Alive') 64bit 2019-02-08 13:03:28 / mkvmerge v11.0.0 ('Alive') 64bit 2019-02-08 13:03:28 / UTC 2019-01-25 13:58:17
    FromStats_BitRate           : 384000
    FromStats_Duration          : 00:26:24.032000000
    FromStats_FrameCount        : 49501
    FromStats_StreamSize        : 76033536

    Audio #2
    ID                          : 3
    Format                      : AC-3
    Format/Info                 : Audio Coding 3
    Commercial name             : Dolby Digital
    Codec ID                    : A_AC3
    Duration                    : 26 min 24 s
    Bit rate mode               : Constant
    Bit rate                    : 384 kb/s
    Channel(s)                  : 6 channels
    Channel layout              : L R C LFE Ls Rs
    Sampling rate               : 48.0 kHz
    Frame rate                  : 31.250 FPS (1536 SPF)
    Bit depth                   : 16 bits
    Compression mode            : Lossy
    Stream size                 : 72.5 MiB (6%)
    Service kind                : Complete Main
    Default                     : No
    Forced                      : No
    Encoded date                : UTC 2019-01-25 13:58:17
    Statistics Tags Issue       : mkvmerge v11.0.0 ('Alive') 64bit 2019-02-08 13:03:28 / mkvmerge v11.0.0 ('Alive') 64bit 2019-02-08 13:03:28 / UTC 2019-01-25 13:58:17
    FromStats_BitRate           : 384000
    FromStats_Duration          : 00:26:24.032000000
    FromStats_FrameCount        : 49501
    FromStats_StreamSize        : 76033536

    Text #1
    ID                          : 4
    Format                      : UTF-8
    Codec ID                    : S_TEXT/UTF8
    Codec ID/Info               : UTF-8 Plain Text
    Title                       : Forced
    Language                    : Spanish
    Default                     : Yes
    Forced                      : Yes
    Statistics Tags Issue       : mkvmerge v11.0.0 ('Alive') 64bit 2019-02-08 13:03:28 / mkvmerge v11.0.0 ('Alive') 64bit 2019-02-08 13:03:28 / UTC 2019-01-25 13:58:17
    FromStats_BitRate           : 5
    FromStats_Duration          : 00:03:40.554000000
    FromStats_FrameCount        : 5
    FromStats_StreamSize        : 153

    Text #2
    ID                          : 5
    Format                      : UTF-8
    Codec ID                    : S_TEXT/UTF8
    Codec ID/Info               : UTF-8 Plain Text
    Title                       : Spanish
    Language                    : Spanish
    Default                     : No
    Forced                      : No
    Statistics Tags Issue       : mkvmerge v11.0.0 ('Alive') 64bit 2019-02-08 13:03:28 / mkvmerge v11.0.0 ('Alive') 64bit 2019-02-08 13:03:28 / UTC 2019-01-25 13:58:17
    FromStats_BitRate           : 74
    FromStats_Duration          : 00:25:11.176000000
    FromStats_FrameCount        : 422
    FromStats_StreamSize        : 14089

  • Peso: 1.20 GiB X Capitulo

Sinopsis

Una mamá soltera cubano-americana lleva adelante un hogar lleno de hormonas revueltas, a pesar de la “ayuda” de la abuela. El clásico de siempre a través de otra lente.

Ficha técnica

Video trailer de la película

Enlaces de descarga

Rip de Bluray

Descargar One Day at a Time (2019) Tercera Temporada WEBDL 1080p Latino




Aportes de DPeliculasHDmega la pass es:dpeliculashdmega.org Aportes de CinemaniaHD la pass es:cinemaniahdd.com
Guardado en : Comedia , Series

Películas relacionadas

Comentarios 0