×

¿Problemas para descargar con Mozilla, EDGE? Deshabilita la opción "Abrir vinculos en una pestaña nueva" tal como lo muestra ésta imagen.

One Day (2011) REMUX 1080p Latino-CMHDD

61 vistas

Información de One Day (2011) REMUX 1080p Latino-CMHDD

Datos de la película

  • Calidad: Full 1080p
  • Audio: Español Latino DTS 5.1 BLURAY - Ingles DTS-HD 5.1 BLURAY
  • Subtitulos: Español Latino PGS - Ingles PGS
  • Resolución: 1920x1080p
  • Formato: MKV
  • Codec: H.264
  • Encoder: CinefiloCool
  • Mediainfo: Clic para Mostrar Datos Ver
  • One.Day.2011.Bluray.REMUX.1080p.VC-1.Latino-CC@CMHDD.mkv
    Format                      : Matroska
    Format version              : Version 4
    File size                   : 26.5 GiB
    Duration                    : 1 h 47 min
    Overall bit rate mode       : Variable
    Overall bit rate            : 35.2 Mb/s
    Movie name                  : One Day (2011) CinemaniaHDD.Net
    Encoded date                : UTC 2024-02-25 03:33:19
    Writing application         : mkvmerge v56.1.0 ('My Friend') 64-bit
    Writing library             : libebml v1.4.2 + libmatroska v1.6.4
    Cover                       : Yes
    Attachments                 : cover.jpg / CINEMANIAHD.png

    Video
    ID                          : 1
    ID in the original source m : 4113 (0x1011)
    Format                      : VC-1
    Format profile              : Advanced@L3
    Codec ID                    : V_MS/VFW/FOURCC / WVC1
    Codec ID/Hint               : Microsoft
    Duration                    : 1 h 47 min
    Bit rate                    : 30.9 Mb/s
    Width                       : 1 920 pixels
    Height                      : 1 080 pixels
    Display aspect ratio        : 16:9
    Frame rate mode             : Constant
    Frame rate                  : 23.976 (24000/1001) FPS
    Color space                 : YUV
    Chroma subsampling          : 4:2:0
    Bit depth                   : 8 bits
    Scan type                   : Progressive
    Compression mode            : Lossy
    Bits/(Pixel*Frame)          : 0.621
    Stream size                 : 23.2 GiB (88%)
    Title                       : REMUX HD1080p [CinemaniaHDD]
    Default                     : Yes
    Forced                      : Yes
    Original source medium      : Blu-ray

    Audio #1
    ID                          : 2
    ID in the original source m : 4353 (0x1101)
    Format                      : DTS
    Format/Info                 : Digital Theater Systems
    Codec ID                    : A_DTS
    Duration                    : 1 h 47 min
    Bit rate mode               : Constant
    Bit rate                    : 768 kb/s
    Channel(s)                  : 6 channels
    Channel layout              : C L R Ls Rs LFE
    Sampling rate               : 48.0 kHz
    Frame rate                  : 93.750 FPS (512 SPF)
    Bit depth                   : 24 bits
    Compression mode            : Lossy
    Stream size                 : 590 MiB (2%)
    Title                       : Español Latino [CinemaniaHDD]
    Language                    : Spanish
    Default                     : Yes
    Forced                      : Yes
    Original source medium      : Blu-ray

    Audio #2
    ID                          : 3
    ID in the original source m : 4352 (0x1100)
    Format                      : DTS XLL
    Format/Info                 : Digital Theater Systems
    Commercial name             : DTS-HD Master Audio
    Codec ID                    : A_DTS
    Duration                    : 1 h 47 min
    Bit rate mode               : Variable
    Bit rate                    : 3 603 kb/s
    Channel(s)                  : 6 channels
    Channel layout              : C L R Ls Rs LFE
    Sampling rate               : 48.0 kHz
    Frame rate                  : 93.750 FPS (512 SPF)
    Bit depth                   : 24 bits
    Compression mode            : Lossless
    Stream size                 : 2.70 GiB (10%)
    Title                       : Ingles [CinemaniaHDD]
    Language                    : English
    Default                     : No
    Forced                      : No
    Original source medium      : Blu-ray

    Text #1
    ID                          : 4
    ID in the original source m : 4611 (0x1203)
    Format                      : PGS
    Muxing mode                 : zlib
    Codec ID                    : S_HDMV/PGS
    Codec ID/Info               : Picture based subtitle format used on BDs/HD-DVDs
    Duration                    : 33 min 23 s
    Bit rate                    : 251 b/s
    Count of elements           : 4
    Stream size                 : 61.6 KiB (0%)
    Title                       : Forzados-PGS [CinemaniaHDD]
    Language                    : Spanish
    Default                     : No
    Forced                      : No
    Original source medium      : Blu-ray

    Text #2
    ID                          : 5
    ID in the original source m : 4609 (0x1201)
    Format                      : PGS
    Muxing mode                 : zlib
    Codec ID                    : S_HDMV/PGS
    Codec ID/Info               : Picture based subtitle format used on BDs/HD-DVDs
    Duration                    : 1 h 39 min
    Bit rate                    : 36.9 kb/s
    Count of elements           : 2549
    Stream size                 : 26.2 MiB (0%)
    Title                       : Español-PGS [CinemaniaHDD]
    Language                    : Spanish
    Default                     : No
    Forced                      : No
    Original source medium      : Blu-ray

    Text #3
    ID                          : 6
    ID in the original source m : 4608 (0x1200)
    Format                      : PGS
    Muxing mode                 : zlib
    Codec ID                    : S_HDMV/PGS
    Codec ID/Info               : Picture based subtitle format used on BDs/HD-DVDs
    Duration                    : 1 h 38 min
    Bit rate                    : 44.3 kb/s
    Count of elements           : 3158
    Stream size                 : 31.3 MiB (0%)
    Title                       : Ingles [CinemaniaHDD]
    Language                    : English
    Default                     : No
    Forced                      : No
    Original source medium      : Blu-ray

    Text #4
    ID                          : 7
    Format                      : UTF-8
    Codec ID                    : S_TEXT/UTF8
    Codec ID/Info               : UTF-8 Plain Text
    Duration                    : 1 h 9 min
    Bit rate                    : 0 b/s
    Count of elements           : 3
    Stream size                 : 107 Bytes (0%)
    Title                       : Forzados-SRT [CinemaniaHDD]
    Language                    : Spanish
    Default                     : Yes
    Forced                      : Yes

    Text #5
    ID                          : 8
    Format                      : UTF-8
    Codec ID                    : S_TEXT/UTF8
    Codec ID/Info               : UTF-8 Plain Text
    Duration                    : 1 h 39 min
    Bit rate                    : 63 b/s
    Count of elements           : 1404
    Stream size                 : 46.3 KiB (0%)
    Title                       : Español-SRT [CinemaniaHDD]
    Language                    : Spanish
    Default                     : No
    Forced                      : No

    Menu
    00:00:00.000                : Chapter 01
    00:03:22.952                : Chapter 02
    00:09:12.677                : Chapter 03
    00:12:23.868                : Chapter 04
    00:16:40.290                : Chapter 05
    00:21:08.517                : Chapter 06
    00:29:21.676                : Chapter 07
    00:37:08.726                : Chapter 08
    00:46:03.177                : Chapter 09
    00:52:39.906                : Chapter 10
    00:59:43.413                : Chapter 11
    01:05:04.483                : Chapter 12
    01:08:07.583                : Chapter 13
    01:12:29.636                : Chapter 14
    01:20:02.631                : Chapter 15
    01:25:39.717                : Chapter 16
    01:27:39.879                : Chapter 17
    01:31:25.813                : Chapter 18
    01:36:55.601                : Chapter 19
    01:41:09.521                : Chapter 20

  • Peso: 26.5 GiB

Sinopsis

Descargar One Day (2011) REMUX 1080p Latino-CMHDD. Emma y Dexter se conocen el día de su graduación universitaria, el 15 de julio de 1988. Ella es una chica de clase trabajadora que sueña con hacer del mundo un lugar mejor. Él es un joven rico con ganas de comerse el mundo. Durante los siguientes veinte años, las vidas de ambos se cruzan y separan, su amistad se debilita o se refuerza y comparten la risa y el romance, el dolor y la alegría. Pero por fin, un día, ambos se dan cuenta de que lo que habían estado buscando durante tanto tiempo estaba delante de ellos.

Ficha técnica

Video trailer de la película

Enlaces de descarga

Rip de Bluray

Descargar One Day (2011) REMUX 1080p Latino-CMHDD


Aportes de DPeliculasHDmega la pass es:dpeliculashdmega.org Aportes de CinemaniaHD la pass es:cinemaniahdd.com Aportes recientes:cinemaniahdd.net
Guardado en : Drama , Remux , Romance

Películas relacionadas

descargar One Day (2011) REMUX 1080p Latino-CMHDD Full 1080p 1080p gratis, One Day (2011) REMUX 1080p Latino-CMHDD Full 1080p mega 1 link, One Day (2011) REMUX 1080p Latino-CMHDD Full 1080p pelicula completa, descargar One Day (2011) REMUX 1080p Latino-CMHDD Full 1080p gratis en mega.

One Day (2011) REMUX 1080p Latino-CMHDD pelicula full hd, One Day (2011) REMUX 1080p Latino-CMHDD mega latino, One Day (2011) REMUX 1080p Latino-CMHDD 4k latino, One Day (2011) REMUX 1080p Latino-CMHDD pelicula completa, One Day (2011) REMUX 1080p Latino-CMHDD descargar gratis, descargar One Day (2011) REMUX 1080p Latino-CMHDD pelicula latino, One Day (2011) REMUX 1080p Latino-CMHDD 1 link mega, One Day (2011) REMUX 1080p Latino-CMHDD 1 link google drive, One Day (2011) REMUX 1080p Latino-CMHDD hd 1080p latino.
Comentarios 0