×

¿Problemas para descargar con Mozilla, EDGE? Deshabilita la opción "Abrir vinculos en una pestaña nueva" tal como lo muestra ésta imagen.

Érase una vez en América (1984) Theatrical Cut REMUX 1080p Latino

284 vistas

Información de Érase una vez en América (1984) Theatrical Cut REMUX 1080p Latino

Datos de la película

  • Calidad: Full 1080p
  • Audio: Se especifica abajo de la Sinopsis
  • Subtitulos: Español Latino PGS - Ingles PGS
  • Resolución: 1920x1080p
  • Formato: MKV
  • Codec: H.264
  • Encoder: CinefiloCool
  • Mediainfo: Clic para Mostrar Datos Ver
  • Erase Una Vez En America (1984) Theatrical Cut REMUX 1080p Latino-CMHDD.mkv
    Format                      : Matroska
    Format version              : Version 4
    File size                   : 29.9 GiB
    Duration                    : 3 h 49 min
    Overall bit rate mode       : Variable
    Overall bit rate            : 18.6 Mb/s
    Movie name                  : Once Upon A Time In America (1984) CinemaniaHDD.Net
    Encoded date                : UTC 2022-02-18 05:08:03
    Writing application         : mkvmerge v56.1.0 ('My Friend') 64-bit
    Writing library             : libebml v1.4.2 + libmatroska v1.6.4
    Attachments                 : CINEMANIAHD.png

    Video
    ID                          : 1
    ID in the original source m : 4113 (0x1011)
    Format                      : AVC
    Format/Info                 : Advanced Video Codec
    Format profile              : High@L4.1
    Format settings             : CABAC / 2 Ref Frames
    Format settings, CABAC      : Yes
    Format settings, Reference  : 2 frames
    Format settings, GOP        : M=1, N=10
    Codec ID                    : V_MPEG4/ISO/AVC
    Duration                    : 3 h 49 min
    Bit rate mode               : Variable
    Bit rate                    : 15.0 Mb/s
    Width                       : 1 920 pixels
    Height                      : 1 080 pixels
    Display aspect ratio        : 16:9
    Frame rate mode             : Constant
    Frame rate                  : 23.976 (24000/1001) FPS
    Color space                 : YUV
    Chroma subsampling          : 4:2:0
    Bit depth                   : 8 bits
    Scan type                   : Progressive
    Bits/(Pixel*Frame)          : 0.301
    Stream size                 : 24.0 GiB (80%)
    Title                       : REMUX HD1080p [CinemaniaHDD]
    Default                     : Yes
    Forced                      : Yes
    Original source medium      : Blu-ray

    Audio #1
    ID                          : 2
    Format                      : AC-3
    Format/Info                 : Audio Coding 3
    Commercial name             : Dolby Digital
    Codec ID                    : A_AC3
    Duration                    : 3 h 49 min
    Bit rate mode               : Constant
    Bit rate                    : 256 kb/s
    Channel(s)                  : 2 channels
    Channel layout              : L R
    Sampling rate               : 48.0 kHz
    Frame rate                  : 31.250 FPS (1536 SPF)
    Compression mode            : Lossy
    Stream size                 : 420 MiB (1%)
    Title                       : Español Latino [CinemaniaHDD]
    Language                    : Spanish
    Service kind                : Complete Main
    Default                     : Yes
    Forced                      : Yes

    Audio #2
    ID                          : 3
    ID in the original source m : 4352 (0x1100)
    Format                      : DTS XLL
    Format/Info                 : Digital Theater Systems
    Commercial name             : DTS-HD Master Audio
    Codec ID                    : A_DTS
    Duration                    : 3 h 49 min
    Bit rate mode               : Variable
    Bit rate                    : 3 410 kb/s
    Channel(s)                  : 6 channels
    Channel layout              : C L R Ls Rs LFE
    Sampling rate               : 48.0 kHz
    Frame rate                  : 93.750 FPS (512 SPF)
    Bit depth                   : 24 bits
    Compression mode            : Lossless
    Stream size                 : 5.46 GiB (18%)
    Title                       : Ingles [CinemaniaHDD]
    Language                    : English
    Default                     : No
    Forced                      : No
    Original source medium      : Blu-ray

    Text #1
    ID                          : 4
    ID in the original source m : 4616 (0x1208)
    Format                      : PGS
    Muxing mode                 : zlib
    Codec ID                    : S_HDMV/PGS
    Codec ID/Info               : Picture based subtitle format used on BDs/HD-DVDs
    Duration                    : 3 h 48 min
    Bit rate                    : 14.1 kb/s
    Count of elements           : 2758
    Stream size                 : 23.0 MiB (0%)
    Title                       : Español-PGS [CinemaniaHDD]
    Language                    : Spanish
    Default                     : No
    Forced                      : No
    Original source medium      : Blu-ray

    Text #2
    ID                          : 5
    ID in the original source m : 4608 (0x1200)
    Format                      : PGS
    Muxing mode                 : zlib
    Codec ID                    : S_HDMV/PGS
    Codec ID/Info               : Picture based subtitle format used on BDs/HD-DVDs
    Duration                    : 3 h 47 min
    Bit rate                    : 19.0 kb/s
    Count of elements           : 3358
    Stream size                 : 30.9 MiB (0%)
    Title                       : Ingles-PGS [CinemaniaHDD]
    Language                    : English
    Default                     : No
    Forced                      : No
    Original source medium      : Blu-ray

    Text #3
    ID                          : 6
    Format                      : UTF-8
    Codec ID                    : S_TEXT/UTF8
    Codec ID/Info               : UTF-8 Plain Text
    Duration                    : 3 h 9 min
    Bit rate                    : 0 b/s
    Count of elements           : 19
    Stream size                 : 431 Bytes (0%)
    Title                       : Forzados-SRT [CinemaniaHDD]
    Language                    : Spanish
    Default                     : Yes
    Forced                      : Yes

    Text #4
    ID                          : 7
    Format                      : UTF-8
    Codec ID                    : S_TEXT/UTF8
    Codec ID/Info               : UTF-8 Plain Text
    Duration                    : 3 h 36 min
    Bit rate                    : 32 b/s
    Count of elements           : 1380
    Stream size                 : 51.3 KiB (0%)
    Title                       : Español-SRT [CinemaniaHDD]
    Language                    : Spanish
    Default                     : No
    Forced                      : No

    Menu
    00:00:00.000                : Chapter 01
    00:02:23.351                : Chapter 02
    00:05:44.677                : Chapter 03
    00:11:29.855                : Chapter 04
    00:13:45.825                : Chapter 05
    00:18:04.208                : Chapter 06
    00:20:05.204                : Chapter 07
    00:21:57.274                : Chapter 08
    00:25:09.883                : Chapter 09
    00:35:03.267                : Chapter 10
    00:41:40.206                : Chapter 11
    00:43:40.743                : Chapter 12
    00:44:46.975                : Chapter 13
    00:46:23.697                : Chapter 14
    00:48:56.683                : Chapter 15
    00:52:33.108                : Chapter 16
    00:55:47.469                : Chapter 17
    01:00:05.476                : Chapter 18
    01:03:44.862                : Chapter 19
    01:07:50.775                : Chapter 20
    01:11:03.300                : Chapter 21
    01:16:19.575                : Chapter 22
    01:21:30.677                : Chapter 23
    01:24:06.332                : Chapter 24
    01:27:19.984                : Chapter 25
    01:29:32.867                : Chapter 26
    01:33:47.455                : Chapter 27
    01:36:12.933                : Chapter 28
    01:38:21.604                : Chapter 29
    01:44:06.323                : Chapter 30
    01:47:50.881                : Chapter 31
    01:53:18.625                : Chapter 32
    01:56:31.067                : Chapter 33
    01:58:27.141                : Chapter 34
    02:00:15.249                : Chapter 35
    02:02:54.950                : Chapter 36
    02:05:33.734                : Chapter 37
    02:11:00.644                : Chapter 38
    02:18:38.518                : Chapter 39
    02:26:21.105                : Chapter 40
    02:31:31.082                : Chapter 41
    02:33:41.086                : Chapter 42
    02:38:49.061                : Chapter 43
    02:40:27.993                : Chapter 44
    02:41:29.680                : Chapter 45
    02:47:37.088                : Chapter 46
    02:49:39.669                : Chapter 47
    02:54:23.286                : Chapter 48
    02:59:03.733                : Chapter 49
    03:03:24.660                : Chapter 50
    03:08:16.535                : Chapter 51
    03:12:01.551                : Chapter 52
    03:17:11.736                : Chapter 53
    03:23:48.966                : Chapter 54
    03:25:49.086                : Chapter 55
    03:31:45.693                : Chapter 56
    03:37:44.384                : Chapter 57
    03:41:29.526                : Chapter 58
    03:44:31.666                : Chapter 59

  • Peso: 29.9 GiB

Sinopsis

Descargar Érase una vez en América (1984) Theatrical Cut REMUX 1080p Latino. David Aaronson «Noodles», un pobre joven judío, conoce en los suburbios de principios del siglo XX de Manhattan, Nueva York, a Maximilian Bercovicz «Max», otro joven de origen hebreo dispuesto a llegar lejos por cualquier método. Entablan una gran amistad y forman, con los 3 colegas de «Noodles», Patrick Goldberg «Patsy», Philip Stein «Cockeye», y Dominic una banda que prospera rápidamente. Desgraciadamente, son perseguidos por Bugsy, el tipo para el que Noodles y sus amigos trabajaban anteriormente, y en uno de sus asaltos, mata a Dominic. Rápidamente Noodles se tira encima suyo y le mata, por lo que pasará 12 años en prisión. Cuando Noodles sale de prisión le recibe Max, que sigue con su banda junto a los otros 2 amigos, Patsy y Cockeye. Rápidamente, entre los 4, llegan a convertirse, en tiempos de la prohibición, en unos de los mayores gánsteres de todo el país.

Audio Español Latino AC3 2.0 Dub ORG – Ingles DTS-HD 5.1 Bluray
Disponible Solo Para VIP!!!

Ficha técnica

Video trailer de la película

Enlaces de descarga

Rip de Bluray

Descargar Érase una vez en América (1984) Theatrical Cut REMUX 1080p Latino


Aportes de DPeliculasHDmega la pass es:dpeliculashdmega.org Aportes de CinemaniaHD la pass es:cinemaniahdd.com
Guardado en : Crimen , Drama , Remux

Películas relacionadas

descargar Érase una vez en América (1984) Theatrical Cut REMUX 1080p Latino Full 1080p 1080p gratis, Érase una vez en América (1984) Theatrical Cut REMUX 1080p Latino Full 1080p mega 1 link, Érase una vez en América (1984) Theatrical Cut REMUX 1080p Latino Full 1080p pelicula completa, descargar Érase una vez en América (1984) Theatrical Cut REMUX 1080p Latino Full 1080p gratis en mega.

Érase una vez en América (1984) Theatrical Cut REMUX 1080p Latino pelicula full hd, Érase una vez en América (1984) Theatrical Cut REMUX 1080p Latino mega latino, Érase una vez en América (1984) Theatrical Cut REMUX 1080p Latino 4k latino, Érase una vez en América (1984) Theatrical Cut REMUX 1080p Latino pelicula completa, Érase una vez en América (1984) Theatrical Cut REMUX 1080p Latino descargar gratis, descargar Érase una vez en América (1984) Theatrical Cut REMUX 1080p Latino pelicula latino, Érase una vez en América (1984) Theatrical Cut REMUX 1080p Latino 1 link mega, Érase una vez en América (1984) Theatrical Cut REMUX 1080p Latino 1 link google drive, Érase una vez en América (1984) Theatrical Cut REMUX 1080p Latino hd 1080p latino.
Comentarios 0