×

¿Problemas para descargar con Mozilla, EDGE? Deshabilita la opción "Abrir vinculos en una pestaña nueva" tal como lo muestra ésta imagen.

Érase una vez en América (1984) EXTENDED Full HD 1080p Latino

298 vistas

Información de Érase una vez en América (1984) EXTENDED Full HD 1080p Latino

Datos de la película

  • Calidad: Full 1080p
  • Audio: Se especifica abajo de la Sinopsis
  • Subtitulos: Español Latino PGS - Ingles PGS
  • Resolución: 1920x1080p
  • Formato: MKV
  • Codec: H.264
  • Encoder: CinefiloCool
  • Mediainfo: Clic para Mostrar Datos Ver
  • Erase Una Vez En America (1984) EXTENDED Full HD 1080p Latino-CMHDD.mkv
    Format                      : Matroska
    Format version              : Version 4
    File size                   : 24.2 GiB
    Duration                    : 4 h 11 min
    Overall bit rate            : 13.8 Mb/s
    Movie name                  : Once Upon a Time in America (1984) CinemaniaHDD.Net
    Encoded date                : UTC 2023-05-30 21:52:41
    Writing application         : mkvmerge v56.1.0 ('My Friend') 64-bit
    Writing library             : libebml v1.4.2 + libmatroska v1.6.4
    Attachments                 : CINEMANIAHD.png

    Video
    ID                          : 1
    Format                      : AVC
    Format/Info                 : Advanced Video Codec
    Format profile              : High@L4.1
    Format settings             : CABAC / 4 Ref Frames
    Format settings, CABAC      : Yes
    Format settings, Reference  : 4 frames
    Codec ID                    : V_MPEG4/ISO/AVC
    Duration                    : 4 h 11 min
    Bit rate                    : 12.0 Mb/s
    Width                       : 1 920 pixels
    Height                      : 1 080 pixels
    Display aspect ratio        : 16:9
    Frame rate mode             : Constant
    Frame rate                  : 23.976 (24000/1001) FPS
    Color space                 : YUV
    Chroma subsampling          : 4:2:0
    Bit depth                   : 8 bits
    Scan type                   : Progressive
    Bits/(Pixel*Frame)          : 0.242
    Stream size                 : 21.1 GiB (87%)
    Title                       : Full HD1080p [CinemaniaHDD]
    Writing library             : x264 core 163 r3059 b684ebe0
    Encoding settings           : cabac=1 / ref=4 / deblock=1:0:0 / analyse=0x3:0x133 / me=tesa / subme=11 / psy=1 / psy_rd=1.00:0.00 / mixed_ref=1 / me_range=24 / chroma_me=1 / trellis=2 / 8x8dct=1 / cqm=0 / deadzone=21,11 / fast_pskip=0 / chroma_qp_offset=-2 / threads=24 / lookahead_threads=6 / sliced_threads=0 / nr=0 / decimate=1 / interlaced=0 / bluray_compat=0 / constrained_intra=0 / bframes=16 / b_pyramid=2 / b_adapt=2 / b_bias=0 / direct=3 / weightb=1 / open_gop=0 / weightp=2 / keyint=240 / keyint_min=24 / scenecut=40 / intra_refresh=0 / rc_lookahead=60 / rc=crf / mbtree=1 / crf=20.0 / qcomp=0.60 / qpmin=0 / qpmax=69 / qpstep=4 / vbv_maxrate=62500 / vbv_bufsize=78125 / crf_max=0.0 / nal_hrd=none / filler=0 / ip_ratio=1.40 / aq=1:1.00
    Language                    : English
    Default                     : Yes
    Forced                      : Yes
    Color range                 : Limited
    Color primaries             : BT.709
    Transfer characteristics    : BT.709
    Matrix coefficients         : BT.709

    Audio #1
    ID                          : 2
    Format                      : AC-3
    Format/Info                 : Audio Coding 3
    Commercial name             : Dolby Digital
    Codec ID                    : A_AC3
    Duration                    : 4 h 11 min
    Bit rate mode               : Constant
    Bit rate                    : 256 kb/s
    Channel(s)                  : 2 channels
    Channel layout              : L R
    Sampling rate               : 48.0 kHz
    Frame rate                  : 31.250 FPS (1536 SPF)
    Compression mode            : Lossy
    Stream size                 : 460 MiB (2%)
    Title                       : Español Latino [CinemaniaHDD]
    Language                    : Spanish
    Service kind                : Complete Main
    Default                     : Yes
    Forced                      : Yes

    Audio #2
    ID                          : 3
    Format                      : DTS
    Format/Info                 : Digital Theater Systems
    Codec ID                    : A_DTS
    Duration                    : 4 h 11 min
    Bit rate mode               : Constant
    Bit rate                    : 1 509 kb/s
    Channel(s)                  : 6 channels
    Channel layout              : C L R Ls Rs LFE
    Sampling rate               : 48.0 kHz
    Frame rate                  : 93.750 FPS (512 SPF)
    Bit depth                   : 24 bits
    Compression mode            : Lossy
    Stream size                 : 2.65 GiB (11%)
    Title                       : Ingles [CinemaniaHDD]
    Language                    : English
    Default                     : No
    Forced                      : No

    Text #1
    ID                          : 4
    Format                      : PGS
    Muxing mode                 : zlib
    Codec ID                    : S_HDMV/PGS
    Codec ID/Info               : Picture based subtitle format used on BDs/HD-DVDs
    Duration                    : 4 h 10 min
    Bit rate                    : 15.9 kb/s
    Count of elements           : 3114
    Stream size                 : 28.5 MiB (0%)
    Title                       : Español-PGS [CinemaniaHDD]
    Language                    : Spanish
    Default                     : No
    Forced                      : No

    Text #2
    ID                          : 5
    Format                      : PGS
    Muxing mode                 : zlib
    Codec ID                    : S_HDMV/PGS
    Codec ID/Info               : Picture based subtitle format used on BDs/HD-DVDs
    Duration                    : 4 h 8 min
    Bit rate                    : 20.7 kb/s
    Count of elements           : 3732
    Stream size                 : 36.7 MiB (0%)
    Title                       : Ingles-PGS [CinemaniaHDD]
    Language                    : English
    Default                     : No
    Forced                      : No

    Text #3
    ID                          : 6
    Format                      : UTF-8
    Codec ID                    : S_TEXT/UTF8
    Codec ID/Info               : UTF-8 Plain Text
    Duration                    : 4 h 10 min
    Bit rate                    : 3 b/s
    Count of elements           : 169
    Stream size                 : 6.44 KiB (0%)
    Title                       : Forzados-SRT [CinemaniaHDD]
    Language                    : Spanish
    Default                     : Yes
    Forced                      : Yes

    Text #4
    ID                          : 7
    Format                      : UTF-8
    Codec ID                    : S_TEXT/UTF8
    Codec ID/Info               : UTF-8 Plain Text
    Duration                    : 3 h 58 min
    Bit rate                    : 29 b/s
    Count of elements           : 1556
    Stream size                 : 51.6 KiB (0%)
    Title                       : Español-SRT [CinemaniaHDD]
    Language                    : Spanish
    Default                     : No
    Forced                      : No

    Menu
    00:00:00.000                :   1. Credits
    00:09:40.329                :   2. Looking for Noodles
    00:19:15.612                :   3. Opium Visions
    00:28:25.286                :   4. Shadow-Play Intruders
    00:38:45.948                :   5. Ambush at Fat Moe's
    00:49:58.954                :   6. Locker Contents
    01:01:07.747                :   7. Slide Show Beckons
    01:08:53.045                :   8. Old Neighborhood
    01:20:22.651                :   9. Return to Moe's
    01:29:08.676                : 10. Deborah's Audience
    01:38:21.228                : 11. Go Look at Yourself
    01:48:40.096                : 12. Bad News
    02:01:04.840                : 13. Sizing Up Targets
    02:08:41.672                : 14. Opportunity Botched
    02:18:40.645                : 15. Toilet Traffic
    02:27:45.857                : 16. Passing the Time
    02:40:21.612                : 17. Payment Devoured
    02:48:14.042                : 18. Laying Down the Law
    03:03:06.642                : 19. Through Open Doors
    03:09:00.162                : 20. Never My Beloved
    03:18:09.627                : 21. Some Partner I Got
    03:28:03.762                : 22. Salting Their Future
    03:40:42.103                : 23. We Solemnly Swear
    03:47:44.609                : 24. Bugsy Strikes
    03:59:39.907                : 25. Noodles Takes The Fall
    04:06:50.796                : 26. Visiting Old Friends

  • Peso: 24.2 GiB

Sinopsis

Descargar Érase una vez en América (1984) EXTENDED Full HD 1080p Latino. David Aaronson «Noodles», un pobre joven judío, conoce en los suburbios de principios del siglo XX de Manhattan, Nueva York, a Maximilian Bercovicz «Max», otro joven de origen hebreo dispuesto a llegar lejos por cualquier método. Entablan una gran amistad y forman, con los 3 colegas de «Noodles», Patrick Goldberg «Patsy», Philip Stein «Cockeye», y Dominic una banda que prospera rápidamente. Desgraciadamente, son perseguidos por Bugsy, el tipo para el que Noodles y sus amigos trabajaban anteriormente, y en uno de sus asaltos, mata a Dominic. Rápidamente Noodles se tira encima suyo y le mata, por lo que pasará 12 años en prisión. Cuando Noodles sale de prisión le recibe Max, que sigue con su banda junto a los otros 2 amigos, Patsy y Cockeye. Rápidamente, entre los 4, llegan a convertirse, en tiempos de la prohibición, en unos de los mayores gánsteres de todo el país.

Audio Español Latino AC3 2.0 ReDub Hybrid – Ingles DTS 5.1 Bluray

Nota:
Para la restauracion, el audio Español Latino esta Editado Con Partes En Ingles. Extraño, pero al parecer segun lo que investigue es Oficial la edicion.

Ficha técnica

Video trailer de la película

Enlaces de descarga

Rip de Bluray

Descargar Érase una vez en América (1984) EXTENDED Full HD 1080p Latino




Aportes de DPeliculasHDmega la pass es:dpeliculashdmega.org Aportes de CinemaniaHD la pass es:cinemaniahdd.com Aportes recientes:cinemaniahdd.net

Películas relacionadas

descargar Érase una vez en América (1984) EXTENDED Full HD 1080p Latino Full 1080p 1080p gratis, Érase una vez en América (1984) EXTENDED Full HD 1080p Latino Full 1080p mega 1 link, Érase una vez en América (1984) EXTENDED Full HD 1080p Latino Full 1080p pelicula completa, descargar Érase una vez en América (1984) EXTENDED Full HD 1080p Latino Full 1080p gratis en mega.

Érase una vez en América (1984) EXTENDED Full HD 1080p Latino pelicula full hd, Érase una vez en América (1984) EXTENDED Full HD 1080p Latino mega latino, Érase una vez en América (1984) EXTENDED Full HD 1080p Latino 4k latino, Érase una vez en América (1984) EXTENDED Full HD 1080p Latino pelicula completa, Érase una vez en América (1984) EXTENDED Full HD 1080p Latino descargar gratis, descargar Érase una vez en América (1984) EXTENDED Full HD 1080p Latino pelicula latino, Érase una vez en América (1984) EXTENDED Full HD 1080p Latino 1 link mega, Érase una vez en América (1984) EXTENDED Full HD 1080p Latino 1 link google drive, Érase una vez en América (1984) EXTENDED Full HD 1080p Latino hd 1080p latino.
Comentarios 0