×

¿Problemas para descargar con Mozilla, EDGE? Deshabilita la opción "Abrir vinculos en una pestaña nueva" tal como lo muestra ésta imagen.

Érase una vez en América (1984) EXTENDED REMUX 1080p Latino

414 vistas

Información de Érase una vez en América (1984) EXTENDED REMUX 1080p Latino

Datos de la película

  • Calidad: Full 1080p
  • Audio: Se especifica abajo de la Sinopsis
  • Subtitulos: Español Latino PGS - Ingles PGS
  • Resolución: 1920x1080p
  • Formato: MKV
  • Codec: H.264
  • Encoder: CinefiloCool
  • Mediainfo: Clic para Mostrar Datos Ver
  • Erase Una Vez En America (1984) EXTENDED REMUX 1080p Latino-CMHDD.mkv
    Format                      : Matroska
    Format version              : Version 4
    File size                   : 33.3 GiB
    Duration                    : 4 h 11 min
    Overall bit rate mode       : Variable
    Overall bit rate            : 19.0 Mb/s
    Movie name                  : Once Upon a Time in America (1984) CinemaniaHDD.Net
    Encoded date                : UTC 2022-02-18 05:56:27
    Writing application         : mkvmerge v56.1.0 ('My Friend') 64-bit
    Writing library             : libebml v1.4.2 + libmatroska v1.6.4
    Attachments                 : CINEMANIAHD.png

    Video
    ID                          : 1
    Format                      : AVC
    Format/Info                 : Advanced Video Codec
    Format profile              : High@L4
    Format settings             : CABAC / 2 Ref Frames
    Format settings, CABAC      : Yes
    Format settings, Reference  : 2 frames
    Codec ID                    : V_MPEG4/ISO/AVC
    Duration                    : 4 h 11 min
    Bit rate mode               : Variable
    Bit rate                    : 15.0 Mb/s
    Width                       : 1 920 pixels
    Height                      : 1 080 pixels
    Display aspect ratio        : 16:9
    Frame rate mode             : Constant
    Frame rate                  : 23.976 (24000/1001) FPS
    Color space                 : YUV
    Chroma subsampling          : 4:2:0
    Bit depth                   : 8 bits
    Scan type                   : Progressive
    Bits/(Pixel*Frame)          : 0.301
    Stream size                 : 26.3 GiB (79%)
    Title                       : REMUX HD1080p [CinemaniaHDD]
    Language                    : English
    Default                     : Yes
    Forced                      : Yes

    Audio #1
    ID                          : 2
    Format                      : AC-3
    Format/Info                 : Audio Coding 3
    Commercial name             : Dolby Digital
    Codec ID                    : A_AC3
    Duration                    : 4 h 11 min
    Bit rate mode               : Constant
    Bit rate                    : 256 kb/s
    Channel(s)                  : 2 channels
    Channel layout              : L R
    Sampling rate               : 48.0 kHz
    Frame rate                  : 31.250 FPS (1536 SPF)
    Compression mode            : Lossy
    Stream size                 : 460 MiB (1%)
    Title                       : Español Latino [CinemaniaHDD]
    Language                    : Spanish
    Service kind                : Complete Main
    Default                     : Yes
    Forced                      : Yes

    Audio #2
    ID                          : 3
    Format                      : DTS XLL
    Format/Info                 : Digital Theater Systems
    Commercial name             : DTS-HD Master Audio
    Codec ID                    : A_DTS
    Duration                    : 4 h 11 min
    Bit rate mode               : Variable
    Bit rate                    : 3 712 kb/s
    Channel(s)                  : 6 channels
    Channel layout              : C L R Ls Rs LFE
    Sampling rate               : 48.0 kHz
    Frame rate                  : 93.750 FPS (512 SPF)
    Bit depth                   : 24 bits
    Compression mode            : Lossless
    Stream size                 : 6.51 GiB (20%)
    Title                       : Ingles [CinemaniaHDD]
    Language                    : English
    Default                     : No
    Forced                      : No

    Text #1
    ID                          : 4
    Format                      : PGS
    Muxing mode                 : zlib
    Codec ID                    : S_HDMV/PGS
    Codec ID/Info               : Picture based subtitle format used on BDs/HD-DVDs
    Duration                    : 4 h 10 min
    Bit rate                    : 15.9 kb/s
    Count of elements           : 3114
    Stream size                 : 28.5 MiB (0%)
    Title                       : Español-PGS [CinemaniaHDD]
    Language                    : Spanish
    Default                     : No
    Forced                      : No

    Text #2
    ID                          : 5
    Format                      : PGS
    Muxing mode                 : zlib
    Codec ID                    : S_HDMV/PGS
    Codec ID/Info               : Picture based subtitle format used on BDs/HD-DVDs
    Duration                    : 4 h 8 min
    Bit rate                    : 20.7 kb/s
    Count of elements           : 3732
    Stream size                 : 36.7 MiB (0%)
    Title                       : Ingles-PGS [CinemaniaHDD]
    Language                    : English
    Default                     : No
    Forced                      : No

    Text #3
    ID                          : 6
    Format                      : UTF-8
    Codec ID                    : S_TEXT/UTF8
    Codec ID/Info               : UTF-8 Plain Text
    Duration                    : 4 h 10 min
    Bit rate                    : 3 b/s
    Count of elements           : 169
    Stream size                 : 6.44 KiB (0%)
    Title                       : Forzados-SRT [CinemaniaHDD]
    Language                    : Spanish
    Default                     : Yes
    Forced                      : Yes

    Text #4
    ID                          : 7
    Format                      : UTF-8
    Codec ID                    : S_TEXT/UTF8
    Codec ID/Info               : UTF-8 Plain Text
    Duration                    : 3 h 58 min
    Bit rate                    : 29 b/s
    Count of elements           : 1556
    Stream size                 : 51.6 KiB (0%)
    Title                       : Español-SRT [CinemaniaHDD]
    Language                    : Spanish
    Default                     : No
    Forced                      : No

    Menu
    00:00:00.000                :   1. Credits
    00:09:40.329                :   2. Looking for Noodles
    00:19:15.612                :   3. Opium Visions
    00:28:25.286                :   4. Shadow-Play Intruders
    00:38:45.948                :   5. Ambush at Fat Moe's
    00:49:58.954                :   6. Locker Contents
    01:01:07.747                :   7. Slide Show Beckons
    01:08:53.045                :   8. Old Neighborhood
    01:20:22.651                :   9. Return to Moe's
    01:29:08.676                : 10. Deborah's Audience
    01:38:21.228                : 11. Go Look at Yourself
    01:48:40.096                : 12. Bad News
    02:01:04.840                : 13. Sizing Up Targets
    02:08:41.672                : 14. Opportunity Botched
    02:18:40.645                : 15. Toilet Traffic
    02:27:45.857                : 16. Passing the Time
    02:40:21.612                : 17. Payment Devoured
    02:48:14.042                : 18. Laying Down the Law
    03:03:06.642                : 19. Through Open Doors
    03:09:00.162                : 20. Never My Beloved
    03:18:09.627                : 21. Some Partner I Got
    03:28:03.762                : 22. Salting Their Future
    03:40:42.103                : 23. We Solemnly Swear
    03:47:44.609                : 24. Bugsy Strikes
    03:59:39.907                : 25. Noodles Takes The Fall
    04:06:50.796                : 26. Visiting Old Friends

  • Peso: 33.3 GiB

Sinopsis

Descargar Érase una vez en América (1984) EXTENDED REMUX 1080p Latino. David Aaronson «Noodles», un pobre joven judío, conoce en los suburbios de principios del siglo XX de Manhattan, Nueva York, a Maximilian Bercovicz «Max», otro joven de origen hebreo dispuesto a llegar lejos por cualquier método. Entablan una gran amistad y forman, con los 3 colegas de «Noodles», Patrick Goldberg «Patsy», Philip Stein «Cockeye», y Dominic una banda que prospera rápidamente. Desgraciadamente, son perseguidos por Bugsy, el tipo para el que Noodles y sus amigos trabajaban anteriormente, y en uno de sus asaltos, mata a Dominic. Rápidamente Noodles se tira encima suyo y le mata, por lo que pasará 12 años en prisión. Cuando Noodles sale de prisión le recibe Max, que sigue con su banda junto a los otros 2 amigos, Patsy y Cockeye. Rápidamente, entre los 4, llegan a convertirse, en tiempos de la prohibición, en unos de los mayores gánsteres de todo el país.

Audio Español Latino AC3 2.0 ReDub Hybrid – Ingles DTS-HD 5.1 Bluray
Disponible Solo Para VIP!!!

Nota:
Para la restauracion, el audio Español Latino esta Editado Con Partes En Ingles. Extraño, pero al parecer segun lo que investigue es Oficial la edicion.

Ficha técnica

Video trailer de la película

Enlaces de descarga

Rip de Bluray

Descargar Érase una vez en América (1984) EXTENDED REMUX 1080p Latino


Aportes de DPeliculasHDmega la pass es:dpeliculashdmega.org Aportes de CinemaniaHD la pass es:cinemaniahdd.com
Guardado en : Crimen , Drama , Remux

Películas relacionadas

  • Mi amigo el dragón (2016) REMUX 1080p Latino

    Mi amigo el dragón (2016) REMUX 1080p Latino

    2016
    Mi amigo el dragón (2016) REMUX 1080p Latino

    1h 43m 2016

    Descargar Mi amigo el dragón (2016) REMUX 1080p Latino. Durante años el Sr. Meacham, un viejo tallador...

    Director: Joe Nolan

    Género: Aventura

    Actores: William J. Rawbone

  • El discurso del Rey (2010) 1080p Latino

    El discurso del Rey (2010) 1080p Latino

    2010
    El discurso del Rey (2010) 1080p Latino

    1h 58m 2010

    Descargar El discurso del Rey (2010) 1080p Latino. El duque de York se convirtió en rey de Gran Bretaña...

    Director: Tom Hooper

    Género: Drama

    Actores: Tony Earnshaw

  • El discurso del Rey (2010) Full HD 1080p Latino

    El discurso del Rey (2010) Full HD 1080p Latino

    2010
    El discurso del Rey (2010) Full HD 1080p Latino

    1h 58m 2010

    Descargar El discurso del Rey (2010) Full HD 1080p Latino. El duque de York se convirtió en rey de Gran...

    Director: Tom Hooper

    Género: Drama

    Actores: Tony Earnshaw

  • El discurso del Rey (2010) REMUX 1080p Latino

    El discurso del Rey (2010) REMUX 1080p Latino

    2010
    El discurso del Rey (2010) REMUX 1080p Latino

    1h 58m 2010

    Descargar El discurso del Rey (2010) REMUX 1080p Latino. El duque de York se convirtió en rey de Gran...

    Director: Tom Hooper

    Género: Drama

    Actores: Tony Earnshaw

descargar Érase una vez en América (1984) EXTENDED REMUX 1080p Latino Full 1080p 1080p gratis, Érase una vez en América (1984) EXTENDED REMUX 1080p Latino Full 1080p mega 1 link, Érase una vez en América (1984) EXTENDED REMUX 1080p Latino Full 1080p pelicula completa, descargar Érase una vez en América (1984) EXTENDED REMUX 1080p Latino Full 1080p gratis en mega.

Érase una vez en América (1984) EXTENDED REMUX 1080p Latino pelicula full hd, Érase una vez en América (1984) EXTENDED REMUX 1080p Latino mega latino, Érase una vez en América (1984) EXTENDED REMUX 1080p Latino 4k latino, Érase una vez en América (1984) EXTENDED REMUX 1080p Latino pelicula completa, Érase una vez en América (1984) EXTENDED REMUX 1080p Latino descargar gratis, descargar Érase una vez en América (1984) EXTENDED REMUX 1080p Latino pelicula latino, Érase una vez en América (1984) EXTENDED REMUX 1080p Latino 1 link mega, Érase una vez en América (1984) EXTENDED REMUX 1080p Latino 1 link google drive, Érase una vez en América (1984) EXTENDED REMUX 1080p Latino hd 1080p latino.
Comentarios 0