×

¿Problemas para descargar con Mozilla, EDGE? Deshabilita la opción "Abrir vinculos en una pestaña nueva" tal como lo muestra ésta imagen.

Once Upon a Time (2014) Temporada 4 WEB-DL 1080p Latino

42 vistas

Información de Once Upon a Time (2014) Temporada 4 WEB-DL 1080p Latino

Datos de la película

  • Calidad: WEBDL
  • Audio: Se especifica abajo de la Sinopsis
  • Subtitulos: Español Latino SRT - Ingles SRT
  • Resolución: 1920x1080p
  • Formato: MKV
  • Codec: H.264
  • Encoder: Melkor
  • Mediainfo: Clic para Mostrar Datos Ver
  • Erase una vez S04E01 (2014) WEB 1080p Latino.mkv
    Format                      : Matroska
    Format version              : Version 4
    File size                   : 2.67 GiB
    Duration                    : 43 min 3 s
    Overall bit rate mode       : Variable
    Overall bit rate            : 8 877 kb/s
    Movie name                  : Erase una vez S04E01 - El cuento de las dos hermanas CinemaniaHDD.Net
    Encoded date                : UTC 2024-06-14 06:44:49
    Writing application         : mkvmerge v63.0.0 ('Everything') 32-bit
    Writing library             : libebml v1.4.2 + libmatroska v1.6.4
    Attachments                 : CINEMANIAHD.png
    Site                        : CinemaniaHDD.Net
    Uploader                    : Melkor

    Video
    ID                          : 1
    Format                      : AVC
    Format/Info                 : Advanced Video Codec
    Format profile              : High@L4
    Format settings             : CABAC / 4 Ref Frames
    Format settings, CABAC      : Yes
    Format settings, Reference  : 4 frames
    Codec ID                    : V_MPEG4/ISO/AVC
    Duration                    : 43 min 3 s
    Bit rate mode               : Variable
    Bit rate                    : 8 492 kb/s
    Maximum bit rate            : 12.7 Mb/s
    Width                       : 1 920 pixels
    Height                      : 1 080 pixels
    Display aspect ratio        : 16:9
    Frame rate mode             : Constant
    Frame rate                  : 23.976 (24000/1001) FPS
    Color space                 : YUV
    Chroma subsampling          : 4:2:0
    Bit depth                   : 8 bits
    Scan type                   : Progressive
    Bits/(Pixel*Frame)          : 0.171
    Stream size                 : 2.55 GiB (96%)
    Title                       : WEB HD1080p [CinemaniaHDD]
    Default                     : Yes
    Forced                      : No
    Color range                 : Limited
    Color primaries             : BT.709
    Transfer characteristics    : BT.709
    Matrix coefficients         : BT.709

    Audio #1
    ID                          : 2
    Format                      : AAC LC
    Format/Info                 : Advanced Audio Codec Low Complexity
    Codec ID                    : A_AAC-2
    Duration                    : 43 min 3 s
    Bit rate                    : 125 kb/s
    Channel(s)                  : 2 channels
    Channel layout              : L R
    Sampling rate               : 48.0 kHz
    Frame rate                  : 46.875 FPS (1024 SPF)
    Compression mode            : Lossy
    Stream size                 : 38.6 MiB (1%)
    Title                       : Español Latino [CinemaniaHDD]
    Language                    : Spanish
    Default                     : Yes
    Forced                      : No

    Audio #2
    ID                          : 3
    Format                      : E-AC-3
    Format/Info                 : Enhanced AC-3
    Commercial name             : Dolby Digital Plus
    Codec ID                    : A_EAC3
    Duration                    : 43 min 3 s
    Bit rate mode               : Constant
    Bit rate                    : 256 kb/s
    Channel(s)                  : 6 channels
    Channel layout              : L R C LFE Ls Rs
    Sampling rate               : 48.0 kHz
    Frame rate                  : 31.250 FPS (1536 SPF)
    Compression mode            : Lossy
    Stream size                 : 78.8 MiB (3%)
    Title                       : Ingles [CinemaniaHDD]
    Language                    : English
    Service kind                : Complete Main
    Default                     : No
    Forced                      : No

    Text #1
    ID                          : 4
    Format                      : UTF-8
    Codec ID                    : S_TEXT/UTF8
    Codec ID/Info               : UTF-8 Plain Text
    Duration                    : 42 min 19 s
    Bit rate                    : 51 b/s
    Count of elements           : 476
    Stream size                 : 16.0 KiB (0%)
    Title                       : Español-SRT [CinemaniaHDD]
    Language                    : Spanish
    Default                     : No
    Forced                      : No

    Text #2
    ID                          : 5
    Format                      : UTF-8
    Codec ID                    : S_TEXT/UTF8
    Codec ID/Info               : UTF-8 Plain Text
    Duration                    : 42 min 15 s
    Bit rate                    : 58 b/s
    Count of elements           : 604
    Stream size                 : 18.0 KiB (0%)
    Title                       : Ingles-SRT [CinemaniaHDD]
    Language                    : English
    Default                     : No
    Forced                      : No

    Menu
    00:03:04.893                : en:Intro
    00:03:12.401                : en:Scene 1
    00:42:51.655                : en:Credits

  • Peso: 2.7 GiB -- 61.6 GiB -- 23 Chapters

Sinopsis

Descargar Once Upon a Time (2014) Temporada 4 WEB-DL 1080p Latino. Mezclando el mundo real y los cuentos de hadas, se cuenta la historia de Emma Swan, una mujer cuya vida cambia cuando su hijo, al que había dado en adopción diez años antes, la encuentra. Él cree que su madre pertenece a un mundo irreal y que es la hija de Blancanieves.

Temporada 4: Tras volver del pasado, Garfio y Emma han tomado decisiones que van a afectar de modo inmediato al presente y al futuro. Por una parte, han conseguido salvar a Marian, la mujer de Robin Hood; lo que destruye al instante el final feliz de Regina y provoca que la oscuridad le vuelva a susurrar al oído. Además, una visitante de Arandelle, Elsa, ha llegado a Storybrooke tras el viaje de los protagonistas. El objetivo de la furiosa reina es encontrar a Anna, que ha desaparecido misteriosamente. Mientras tanto, la nieve se acerca lentamente al pueblo…

Español Latino AAC 2.0 – Ingles EAC3 5.1 [ D+] 

Ficha técnica

Video trailer de la película

Enlaces de descarga

Rip de Bluray

Descargar Once Upon a Time (2014) Temporada 4 WEB-DL 1080p Latino




Aportes de DPeliculasHDmega la pass es:dpeliculashdmega.org Aportes de CinemaniaHD la pass es:cinemaniahdd.com Aportes recientes:cinemaniahdd.net
Guardado en : Drama , Sci-Fi & Fantasy , Series
Etiquetado en :

Películas relacionadas

descargar Once Upon a Time (2014) Temporada 4 WEB-DL 1080p Latino WEBDL 1080p gratis, Once Upon a Time (2014) Temporada 4 WEB-DL 1080p Latino WEBDL mega 1 link, Once Upon a Time (2014) Temporada 4 WEB-DL 1080p Latino WEBDL serie completa, descargar Once Upon a Time (2014) Temporada 4 WEB-DL 1080p Latino WEBDL gratis en mega.

Once Upon a Time (2014) Temporada 4 WEB-DL 1080p Latino pelicula full hd, Once Upon a Time (2014) Temporada 4 WEB-DL 1080p Latino mega latino, Once Upon a Time (2014) Temporada 4 WEB-DL 1080p Latino 4k latino, Once Upon a Time (2014) Temporada 4 WEB-DL 1080p Latino pelicula completa, Once Upon a Time (2014) Temporada 4 WEB-DL 1080p Latino descargar gratis, descargar Once Upon a Time (2014) Temporada 4 WEB-DL 1080p Latino pelicula latino, Once Upon a Time (2014) Temporada 4 WEB-DL 1080p Latino 1 link mega, Once Upon a Time (2014) Temporada 4 WEB-DL 1080p Latino 1 link google drive, Once Upon a Time (2014) Temporada 4 WEB-DL 1080p Latino hd 1080p latino.
Comentarios 0