Once Upon a Deadpool (2018) Full 1080p Latino

2.853 vistas
1 estrella2 estrellas3 estrellas4 estrellas5 estrellas (4 votos, promedio: 5,00 de 5)
Cargando…

Información de Once Upon a Deadpool (2018) Full 1080p Latino

Datos de la película

  • Calidad: Full 1080p
  • Audio: Español Latino AC3 5.1 BLURAY - DTS-HD Master 7.1 BLURAY
  • Subtitulos: Español Latino PGS - Ingles PGS
  • Resolución: 1920x1080p
  • Formato: MKV
  • Codec: H.264
  • Encoder: Dracarys
  • Mediainfo: Clic para Mostrar Datos Ver
  • Format                      : Matroska
    Format version              : Version 4
    File size                   : 8.32 GiB
    Duration                    : 1 h 57 min
    Overall bit rate mode       : Variable
    Overall bit rate            : 10.1 Mb/s
    Movie name                  : CinemaniaHDD.net
    Encoded date                : UTC 2019-01-22 03:07:40
    Writing application         : mkvmerge v30.1.0 ('Forever And More') 64-bit
    Writing library             : libebml v1.3.6 + libmatroska v1.4.9 / Lavf58.20.100

    Video
    ID                          : 1
    Format                      : AVC
    Format/Info                 : Advanced Video Codec
    Format profile              : [email protected]
    Format settings             : CABAC / 4 Ref Frames
    Format settings, CABAC      : Yes
    Format settings, ReFrames   : 4 frames
    Codec ID                    : V_MPEG4/ISO/AVC
    Duration                    : 1 h 57 min
    Bit rate                    : 4 917 kb/s
    Width                       : 1 920 pixels
    Height                      : 1 080 pixels
    Display aspect ratio        : 16:9
    Frame rate mode             : Constant
    Frame rate                  : 23.976 (24000/1001) FPS
    Color space                 : YUV
    Chroma subsampling          : 4:2:0
    Bit depth                   : 8 bits
    Scan type                   : Progressive
    Bits/(Pixel*Frame)          : 0.099
    Stream size                 : 4.04 GiB (49%)
    Writing library             : x264 core 157 r2935 545de2f
    Encoding settings           : cabac=1 / ref=4 / deblock=1:0:0 / analyse=0x1:0x131 / me=esa / subme=10 / psy=1 / psy_rd=1.00:0.00 / mixed_ref=1 / me_range=24 / chroma_me=1 / trellis=2 / 8x8dct=0 / cqm=0 / deadzone=21,11 / fast_pskip=1 / chroma_qp_offset=-2 / threads=34 / lookahead_threads=5 / sliced_threads=0 / nr=0 / decimate=1 / interlaced=0 / bluray_compat=0 / constrained_intra=0 / bframes=8 / b_pyramid=2 / b_adapt=2 / b_bias=0 / direct=3 / weightb=1 / open_gop=0 / weightp=2 / keyint=240 / keyint_min=24 / scenecut=40 / intra_refresh=0 / rc_lookahead=60 / rc=crf / mbtree=1 / crf=20.0 / qcomp=0.60 / qpmin=0 / qpmax=69 / qpstep=4 / vbv_maxrate=20000 / vbv_bufsize=25000 / crf_max=0.0 / nal_hrd=none / filler=0 / ip_ratio=1.40 / aq=1:1.00
    Language                    : English
    Default                     : Yes
    Forced                      : No
    Color range                 : Limited
    Color primaries             : BT.709
    Transfer characteristics    : BT.709
    Matrix coefficients         : BT.709

    Audio #1
    ID                          : 2
    Format                      : AC-3
    Format/Info                 : Audio Coding 3
    Commercial name             : Dolby Digital
    Codec ID                    : A_AC3
    Duration                    : 1 h 57 min
    Bit rate mode               : Constant
    Bit rate                    : 448 kb/s
    Channel(s)                  : 6 channels
    Channel layout              : L R C LFE Ls Rs
    Sampling rate               : 48.0 kHz
    Frame rate                  : 31.250 FPS (1536 SPF)
    Bit depth                   : 16 bits
    Compression mode            : Lossy
    Stream size                 : 377 MiB (4%)
    Language                    : Spanish
    Service kind                : Complete Main
    Default                     : Yes
    Forced                      : No

    Audio #2
    ID                          : 3
    Format                      : DTS XLL
    Format/Info                 : Digital Theater Systems
    Commercial name             : DTS-HD Master Audio
    Codec ID                    : A_DTS
    Duration                    : 1 h 57 min
    Bit rate mode               : Variable
    Bit rate                    : 4 729 kb/s
    Channel(s)                  : 8 channels
    Channel layout              : C L R LFE Lb Rb Lss Rss
    Sampling rate               : 48.0 kHz
    Frame rate                  : 93.750 FPS (512 SPF)
    Bit depth                   : 24 bits
    Compression mode            : Lossless
    Stream size                 : 3.89 GiB (47%)
    Language                    : English
    Default                     : No
    Forced                      : No

    Text #1
    ID                          : 4
    Format                      : PGS
    Muxing mode                 : zlib
    Codec ID                    : S_HDMV/PGS
    Codec ID/Info               : Picture based subtitle format used on BDs/HD-DVDs
    Duration                    : 1 h 56 min
    Bit rate                    : 39.7 kb/s
    Count of elements           : 3468
    Stream size                 : 33.2 MiB (0%)
    Language                    : Spanish
    Default                     : No
    Forced                      : No

    Text #2
    ID                          : 5
    Format                      : PGS
    Muxing mode                 : zlib
    Codec ID                    : S_HDMV/PGS
    Codec ID/Info               : Picture based subtitle format used on BDs/HD-DVDs
    Duration                    : 1 h 54 min
    Bit rate                    : 405 b/s
    Count of elements           : 42
    Stream size                 : 340 KiB (0%)
    Title                       : Forzados
    Language                    : Spanish
    Default                     : Yes
    Forced                      : Yes

    Text #3
    ID                          : 6
    Format                      : PGS
    Muxing mode                 : zlib
    Codec ID                    : S_HDMV/PGS
    Codec ID/Info               : Picture based subtitle format used on BDs/HD-DVDs
    Duration                    : 1 h 56 min
    Bit rate                    : 52.3 kb/s
    Count of elements           : 4626
    Stream size                 : 43.8 MiB (1%)
    Language                    : English
    Default                     : No
    Forced                      : No

    Menu
    00:00:00.000                : :Capítulo 01
    00:04:07.205                : :Capítulo 02
    00:06:13.456                : :Capítulo 03
    00:11:31.524                : :Capítulo 04
    00:15:12.662                : :Capítulo 05
    00:18:35.406                : :Capítulo 06
    00:20:51.834                : :Capítulo 07
    00:24:33.555                : :Capítulo 08
    00:25:54.928                : :Capítulo 09
    00:28:19.072                : :Capítulo 10
    00:32:40.876                : :Capítulo 11
    00:36:23.682                : :Capítulo 12
    00:39:48.219                : :Capítulo 13
    00:42:27.086                : :Capítulo 14
    00:45:29.518                : :Capítulo 15
    00:49:05.025                : :Capítulo 16
    00:52:19.762                : :Capítulo 17
    00:54:50.662                : :Capítulo 18
    00:56:33.557                : :Capítulo 19
    00:58:21.164                : :Capítulo 20
    01:03:27.053                : :Capítulo 21
    01:07:02.810                : :Capítulo 22
    01:12:23.756                : :Capítulo 23
    01:17:15.756                : :Capítulo 24
    01:20:19.315                : :Capítulo 25
    01:23:45.729                : :Capítulo 26
    01:25:43.430                : :Capítulo 27
    01:28:30.889                : :Capítulo 28
    01:29:58.393                : :Capítulo 29
    01:31:31.736                : :Capítulo 30
    01:33:04.287                : :Capítulo 31
    01:36:22.443                : :Capítulo 32
    01:39:00.893                : :Capítulo 33
    01:42:45.493                : :Capítulo 34
    01:46:28.799                : :Capítulo 35
    01:56:51.004                : :Capítulo 36

     

  • Peso: 8.32 GiB

Sinopsis

Deadpool (Ryan Reynolds) le cuenta al actor Fred Savage (el niño de “La Princesa Prometida”) algunas de sus aventuras, en un homenaje-parodia a dicha película de 1987 en la que el abuelo le contaba historias a Fred. ‘Once Upon a Deadpool’ es una revisión estrenada en cines de “Deadpool 2” adaptada a la calificación por edades PG-13, es decir: un reestreno navideño sin violencia, palabras malsonantes y otras características del film original de David Leitch, añadiéndose además nuevas escenas a la película.

Ficha técnica

Video trailer de la película

Enlaces de descarga

Rip de Bluray

Descargar Once Upon a Deadpool (2018) Full 1080p Latino




Aportes de DPeliculasHDmega la pass es:dpeliculashdmega.org Aportes de CinemaniaHD la pass es:cinemaniahdd.com

Películas relacionadas

  • Yucatán (2018) NF WEB-DL 1080p Castellano

    2018
    Yucatán (2018) NF WEB-DL 1080p Castellano

    0.0 2h 10m 2018

    Lucas (Luis Tosar) y Clayderman (Rodrigo de la Serna) son dos estafadores que se dedican a timar a turistas...

    Director: Daniel Monzón

    Género: Castellano

    Actores: Xavier Lite

  • Wolf Warrior 2 (2017) 1080p Latino

    2017
    Wolf Warrior 2 (2017) 1080p Latino

    0.0 2h 6m 2017

    Secuela de la película de acción exitosa "Wolf Warrior" (2015) La operación más peligrosa de las...

    Director: Wu Jing

    Género: Acción

    Actores: Yu Qian

  • The Front Runner (2018) Full 1080p Latino

    2018
    The Front Runner (2018) Full 1080p Latino

    0.0 1h 53m 2018

    Narra la campaña presidencial del senador estadounidense Gary Hart, que tuvo lugar en 1988, momento...

    Director: Jason Reitman

    Género: Drama

    Actores: William Walker

  • Robin Hood orígenes (2018) Full 1080p Latino

    2018
    Robin Hood orígenes (2018) Full 1080p Latino

    0.0 1h 56m 2018

    Cuando el joven Robin Hood (Taron Egerton) regresa a su hogar, endurecido, tras luchar como guerrero...

    Director: Otto Bathurst

    Género: Acción

    Actores: Yasen Atour

Comentarios 3
  • gaston - 30 enero, 2019

    Hola el final de esta peli o sea la última media hora se pixela y se corta o sea que no se ve ! Tengo que volver a descargar xq se descargó mal? Saludos muy buena la paguina

  • Camila fernanda Peña aravena - 22 enero, 2019

    Hola Cúando podrán subir animales fanáticos 2. Porfaaaaaa

  • Daniel - 22 enero, 2019

    Los links de google drive me dicen que no puedo ver ni descargar el contenido