Once (2007) Full 1080p Latino

981 vistas
1 estrella2 estrellas3 estrellas4 estrellas5 estrellas (Ninguna valoración todavía)
Cargando…

Información de Once (2007) Full 1080p Latino

Datos de la película

  • Calidad: Full 1080p
  • Audio: Se especifica abajo de la Sinopsis
  • Subtitulos: Español Latino PGS - Ingles PGS
  • Resolución: 1920x1080p
  • Formato: MKV
  • Codec: H.264
  • Encoder: Dracarys
  • Mediainfo: Clic para Mostrar Datos Ver
  • Format                                   : Matroska
    Format version                           : Version 4 / Version 2
    File size                                : 6.12 GiB
    Duration                                 : 1 h 26 min
    Overall bit rate                         : 10.1 Mb/s
    Movie name                               : CinemaniaHDD.net
    Encoded date                             : UTC 2018-06-19 22:31:38 / UTC 2018-05-18T01:38:34Z
    Writing application                      : mkvmerge v15.0.0 ('Duel with the Devil') 64-bit
    Writing library                          : libebml v1.3.5 + libmatroska v1.4.5 / Lavf57.7.2

    Video
    ID                                       : 1
    Format                                   : AVC
    Format/Info                              : Advanced Video Codec
    Format profile                           : High@L4.1
    Format settings                          : CABAC / 4 Ref Frames
    Format settings, CABAC                   : Yes
    Format settings, RefFrames               : 4 frames
    Codec ID                                 : V_MPEG4/ISO/AVC
    Duration                                 : 1 h 26 min
    Bit rate                                 : 8 204 kb/s
    Width                                    : 1 920 pixels
    Height                                   : 1 080 pixels
    Display aspect ratio                     : 16:9
    Frame rate mode                          : Constant
    Frame rate                               : 23.976 (24000/1001) FPS
    Color space                              : YUV
    Chroma subsampling                       : 4:2:0
    Bit depth                                : 8 bits
    Scan type                                : Progressive
    Bits/(Pixel*Frame)                       : 0.165
    Stream size                              : 4.96 GiB (81%)
    Title                                    : Once (2007) Full 1080p Latino
    Writing library                          : x264 core 148 r2708 86b7198
    Encoding settings                        : cabac=1 / ref=4 / deblock=1:0:0 / analyse=0x3:0x133 / me=esa / subme=9 / psy=1 / psy_rd=1.00:0.00 / mixed_ref=1 / me_range=16 / chroma_me=1 / trellis=2 / 8x8dct=1 / cqm=0 / deadzone=21,11 / fast_pskip=1 / chroma_qp_offset=-2 / threads=34 / lookahead_threads=2 / sliced_threads=0 / nr=0 / decimate=1 / interlaced=0 / bluray_compat=0 / constrained_intra=0 / bframes=3 / b_pyramid=2 / b_adapt=2 / b_bias=0 / direct=3 / weightb=1 / open_gop=0 / weightp=2 / keyint=240 / keyint_min=24 / scenecut=40 / intra_refresh=0 / rc_lookahead=60 / rc=crf / mbtree=1 / crf=20.0 / qcomp=0.60 / qpmin=0 / qpmax=69 / qpstep=4 / vbv_maxrate=62500 / vbv_bufsize=78125 / crf_max=0.0 / nal_hrd=none / filler=0 / ip_ratio=1.40 / aq=1:1.00
    Language                                 : English
    Default                                  : Yes
    Forced                                   : No
    Color range                              : Limited
    Color primaries                          : BT.709
    Transfer characteristics                 : BT.709
    Matrix coefficients                      : BT.709
    Statistics Tags Issue                    : mkvmerge v15.0.0 ('Duel with the Devil') 64-bit 2018-06-19 22:31:38 / mkvmerge v15.0.0 ('Duel with the Devil') 64-bit 2018-06-19 22:31:38 / UTC 2018-05-18T01:38:34Z
    FromStats_BitRate                        : 8385058
    FromStats_Duration                       : 01:26:28.559000000
    FromStats_FrameCount                     : 124401
    FromStats_StreamSize                     : 5438296297

    Audio #1
    ID                                       : 2
    Format                                   : AC-3
    Format/Info                              : Audio Coding 3
    Mode                                     : Dolby Digital
    Format settings, Endianness              : Big
    Codec ID                                 : A_AC3
    Duration                                 : 1 h 26 min
    Bit rate mode                            : Constant
    Bit rate                                 : 224 kb/s
    Channel(s)                               : 2 channels
    Channel positions                        : Front: L R
    Sampling rate                            : 48.0 kHz
    Frame rate                               : 31.250 FPS (1536 SPF)
    Bit depth                                : 16 bits
    Compression mode                         : Lossy
    Stream size                              : 139 MiB (2%)
    Language                                 : Spanish
    Service kind                             : Complete Main
    Default                                  : Yes
    Forced                                   : No
    Statistics Tags Issue                    : mkvmerge v15.0.0 ('Duel with the Devil') 64-bit 2018-06-19 22:31:38 / mkvmerge v15.0.0 ('Duel with the Devil') 64-bit 2018-06-19 22:31:38 / UTC 2018-05-18T01:38:34Z
    FromStats_BitRate                        : 224000
    FromStats_Duration                       : 01:26:28.576000000
    FromStats_FrameCount                     : 162143
    FromStats_StreamSize                     : 145280128

    Audio #2
    ID                                       : 3
    Format                                   : DTS
    Format/Info                              : Digital Theater Systems
    Mode                                     : 16
    Format settings, Endianness              : Big
    Codec ID                                 : A_DTS
    Duration                                 : 1 h 26 min
    Bit rate mode                            : Constant
    Bit rate                                 : 1 509 kb/s
    Channel(s)                               : 2 channels
    Channel positions                        : Front: L R
    Sampling rate                            : 48.0 kHz
    Frame rate                               : 93.750 FPS (512 SPF)
    Bit depth                                : 24 bits
    Compression mode                         : Lossy
    Stream size                              : 933 MiB (15%)
    Language                                 : English
    Default                                  : No
    Forced                                   : No
    Statistics Tags Issue                    : mkvmerge v15.0.0 ('Duel with the Devil') 64-bit 2018-06-19 22:31:38 / mkvmerge v15.0.0 ('Duel with the Devil') 64-bit 2018-06-19 22:31:38 / UTC 2018-05-18T01:38:34Z
    FromStats_BitRate                        : 1508999
    FromStats_Duration                       : 01:26:28.555000000
    FromStats_FrameCount                     : 486427
    FromStats_StreamSize                     : 978691124

    Text #1
    ID                                       : 4
    Format                                   : PGS
    Muxing mode                              : zlib
    Codec ID                                 : S_HDMV/PGS
    Codec ID/Info                            : Picture based subtitle format used on BDs/HD-DVDs
    Language                                 : English
    Default                                  : No
    Forced                                   : No
    Statistics Tags Issue                    : mkvmerge v15.0.0 ('Duel with the Devil') 64-bit 2018-06-19 22:31:38 / mkvmerge v15.0.0 ('Duel with the Devil') 64-bit 2018-06-19 22:31:38 / UTC 2018-05-18T01:38:34Z
    FromStats_BitRate                        : 30020
    FromStats_Duration                       : 01:24:41.367000000
    FromStats_FrameCount                     : 2332
    FromStats_StreamSize                     : 19068302

    Text #2
    ID                                       : 5
    Format                                   : PGS
    Muxing mode                              : zlib
    Codec ID                                 : S_HDMV/PGS
    Codec ID/Info                            : Picture based subtitle format used on BDs/HD-DVDs
    Language                                 : Spanish
    Default                                  : No
    Forced                                   : No
    Statistics Tags Issue                    : mkvmerge v15.0.0 ('Duel with the Devil') 64-bit 2018-06-19 22:31:38 / mkvmerge v15.0.0 ('Duel with the Devil') 64-bit 2018-06-19 22:31:38 / UTC 2018-05-18T01:38:34Z
    FromStats_BitRate                        : 27339
    FromStats_Duration                       : 01:20:34.329000000
    FromStats_FrameCount                     : 1826
    FromStats_StreamSize                     : 16521118

    Menu
    00:00:00.000                             : :Chapter 1
    00:03:32.254                             : :Chapter 2
    00:08:13.159                             : :Chapter 3
    00:09:50.840                             : :Chapter 4
    00:14:15.313                             : :Chapter 5
    00:20:26.058                             : :Chapter 6
    00:23:57.311                             : :Chapter 7
    00:26:29.004                             : :Chapter 8
    00:30:51.516                             : :Chapter 9
    00:33:54.241                             : :Chapter 10
    00:37:51.853                             : :Chapter 11
    00:42:29.464                             : :Chapter 12
    00:46:15.022                             : :Chapter 13
    00:52:05.748                             : :Chapter 14
    00:55:22.569                             : :Chapter 15
    00:57:35.035                             : :Chapter 16
    01:02:35.543                             : :Chapter 17
    01:04:56.768                             : :Chapter 18
    01:10:04.242                             : :Chapter 19
    01:13:49.717                             : :Chapter 20
    01:16:36.175                             : :Chapter 21
    01:18:26.285                             : :Chapter 22
    01:20:48.761                             : :Chapter 23
    01:23:52.694                             : :Chapter 24

  • Peso: 6.12 GiB

Sinopsis

Glen Hansard es un cantante y compositor que interpreta sus canciones por las calles de Dublín, cuando no está trabajando en la tienda de su padre (Bill Hodnett). Durante el día, para ganar algún dinero extra, interpreta conocidos temas para los transeúntes, pero por las noches, toca sus propios temas en los que habla de cómo le dejó su novia. Su talento no pasa desapercibido a Marketa Irglova, una inmigrante checa que vende flores en la calle. Ella tampoco ha tenido suerte en el amor y, para sentirse un poco mejor, escribe canciones sobre el tema, pero, a diferencia de Glen, nunca las interpreta en público. Glen y Marketa, acaban de improviso haciendo un dueto en una tienda de música, y será entonces cuando descubran que algo les une…

 

Latino AC3 2.0 Bluray  –  Ingles DTS 2.0 Bluray

Ficha técnica

Video trailer de la película

Enlaces de descarga

Rip de Bluray

Descargar Once (2007) Full 1080p Latino




Aportes de DPeliculasHDmega la pass es:dpeliculashdmega.org Aportes de CinemaniaHD la pass es:cinemaniahdd.com

Películas relacionadas

  • Roma (2018) Web-DL 1080p Latino

    2018
    Roma (2018) Web-DL 1080p Latino

    3.7 2h 14m 2018

    Descargar Roma (2018) Web-DL 1080p Latino, Mega, Google Drive, Torrent. Cleo (Yalitza Aparicio) es la...

    Director: Natalia Moguel

    Género: Drama

    Actores: Zarela Lizbeth Chinolla Arellano

  • Godzilla (2014) 1080p Latino

    2014
    Godzilla (2014) 1080p Latino

    0.0 2h 3m 2014

    Descargar Godzilla (2014) 1080p Latino, Mega, Google Drive, Torrent. Gareth Edwards dirige este "reboot",...

    Director: Jessica Clothier

    Género: Acción

    Actores: Yuki Morita

  • Godzilla (2014) Full 1080p Latino

    2014
    Godzilla (2014) Full 1080p Latino

    4.2 2h 3m 2014

    Descargar Godzilla (2014) Full 1080p Latino, Mega, Google Drive, Torrent. Gareth Edwards dirige este...

    Director: Jessica Clothier

    Género: Acción

    Actores: Yuki Morita

Comentarios 0