On My Block (2018) Temporada 1 NF 1080p Latino

188 vistas
1 estrella2 estrellas3 estrellas4 estrellas5 estrellas (1 votos, promedio: 5,00 de 5)
Cargando…

Información de On My Block (2018) Temporada 1 NF 1080p Latino

Datos de la película

  • Calidad: WEBDL
  • Audio: Español Latino AC3 5.1 Netflix - Ingles AC3 5.1 Netflix
  • Subtitulos: Español Latino SRT- FORZADOS SRT
  • Resolución: 1920x1080
  • Formato: MKV
  • Codec: H.264
  • Encoder: cinemaniahd
  • Mediainfo: Clic para Mostrar Datos Ver
  • On My Block S01E01 NF WEB-DL 1080p Latino.mkv
    Format                      : Matroska
    Format version              : Version 4
    File size                   : 912 MiB
    Duration                    : 31 min 28 s
    Overall bit rate mode       : Variable
    Overall bit rate            : 4 052 kb/s
    Movie name                  : On My Block S01E01
    Encoded date                : UTC 2019-02-12 06:20:58 / UTC 2019-01-31 07:56:45
    Writing application         : mkvmerge v11.0.0 ('Alive') 64bit
    Writing library             : libebml v1.3.4 + libmatroska v1.4.5 / Lavf58.0.0

    Video
    ID                          : 1
    Format                      : AVC
    Format/Info                 : Advanced Video Codec
    Format profile              : [email protected]
    Format settings             : CABAC / 4 Ref Frames
    Format settings, CABAC      : Yes
    Format settings, ReFrames   : 4 frames
    Codec ID                    : V_MPEG4/ISO/AVC
    Duration                    : 31 min 28 s
    Bit rate mode               : Variable
    Bit rate                    : 3 204 kb/s
    Maximum bit rate            : 20.0 Mb/s
    Width                       : 1 920 pixels
    Height                      : 1 080 pixels
    Display aspect ratio        : 16:9
    Frame rate mode             : Constant
    Frame rate                  : 23.976 (24000/1001) FPS
    Color space                 : YUV
    Chroma subsampling          : 4:2:0
    Bit depth                   : 8 bits
    Scan type                   : Progressive
    Bits/(Pixel*Frame)          : 0.064
    Stream size                 : 721 MiB (79%)
    Title                       : CinemaniaHDD
    Writing library             : x264 core 148 r2715 7e75228
    Encoding settings           : cabac=1 / ref=4 / deblock=1:0:0 / analyse=0x3:0x111 / me=umh / subme=10 / psy=1 / psy_rd=1.00:0.00 / mixed_ref=1 / me_range=120 / chroma_me=1 / trellis=2 / 8x8dct=1 / cqm=0 / deadzone=21,11 / fast_pskip=1 / chroma_qp_offset=-2 / threads=8 / lookahead_threads=2 / sliced_threads=0 / nr=0 / decimate=1 / interlaced=0 / bluray_compat=0 / stitchable=1 / constrained_intra=0 / bframes=16 / b_pyramid=2 / b_adapt=2 / b_bias=0 / direct=3 / weightb=1 / open_gop=0 / weightp=2 / keyint=240 / keyint_min=121 / scenecut=0 / intra_refresh=0 / rc_lookahead=240 / rc=crf / mbtree=1 / crf=20.0 / qcomp=0.50 / qpmin=6 / qpmax=51 / qpstep=4 / vbv_maxrate=20000 / vbv_bufsize=25000 / crf_max=0.0 / nal_hrd=vbr / filler=0 / ip_ratio=1.40 / aq=1:0.80
    Default                     : Yes
    Forced                      : No
    Statistics Tags Issue       : mkvmerge v11.0.0 ('Alive') 64bit 2019-02-12 06:20:58 / mkvmerge v11.0.0 ('Alive') 64bit 2019-02-12 06:20:58 / UTC 2019-01-31 07:56:45
    FromStats_BitRate           : 3284404
    FromStats_Duration          : 00:31:27.302000000
    FromStats_FrameCount        : 45250
    FromStats_StreamSize        : 774832934

    Audio #1
    ID                          : 2
    Format                      : AC-3
    Format/Info                 : Audio Coding 3
    Commercial name             : Dolby Digital
    Codec ID                    : A_AC3
    Duration                    : 31 min 28 s
    Bit rate mode               : Constant
    Bit rate                    : 384 kb/s
    Channel(s)                  : 6 channels
    Channel layout              : L R C LFE Ls Rs
    Sampling rate               : 48.0 kHz
    Frame rate                  : 31.250 FPS (1536 SPF)
    Bit depth                   : 16 bits
    Compression mode            : Lossy
    Stream size                 : 86.5 MiB (9%)
    Title                       : Español latino [CinemaniaHDD]
    Language                    : Spanish
    Service kind                : Complete Main
    Default                     : Yes
    Forced                      : No
    Encoded date                : UTC 2019-01-31 07:57:06
    Statistics Tags Issue       : mkvmerge v11.0.0 ('Alive') 64bit 2019-02-12 06:20:58 / mkvmerge v11.0.0 ('Alive') 64bit 2019-02-12 06:20:58 / UTC 2019-01-31 07:56:45
    FromStats_BitRate           : 384000
    FromStats_Duration          : 00:31:28.544000000
    FromStats_FrameCount        : 59017
    FromStats_StreamSize        : 90650112

    Audio #2
    ID                          : 3
    Format                      : AC-3
    Format/Info                 : Audio Coding 3
    Commercial name             : Dolby Digital
    Codec ID                    : A_AC3
    Duration                    : 31 min 28 s
    Bit rate mode               : Constant
    Bit rate                    : 384 kb/s
    Channel(s)                  : 6 channels
    Channel layout              : L R C LFE Ls Rs
    Sampling rate               : 48.0 kHz
    Frame rate                  : 31.250 FPS (1536 SPF)
    Bit depth                   : 16 bits
    Compression mode            : Lossy
    Stream size                 : 86.5 MiB (9%)
    Title                       : Inglés [CinemaniaHDD]
    Language                    : English
    Service kind                : Complete Main
    Default                     : No
    Forced                      : No
    Encoded date                : UTC 2019-01-31 07:56:45
    Statistics Tags Issue       : mkvmerge v11.0.0 ('Alive') 64bit 2019-02-12 06:20:58 / mkvmerge v11.0.0 ('Alive') 64bit 2019-02-12 06:20:58 / UTC 2019-01-31 07:56:45
    FromStats_BitRate           : 384000
    FromStats_Duration          : 00:31:28.544000000
    FromStats_FrameCount        : 59017
    FromStats_StreamSize        : 90650112

    Text #1
    ID                          : 4
    Format                      : UTF-8
    Codec ID                    : S_TEXT/UTF8
    Codec ID/Info               : UTF-8 Plain Text
    Title                       : Forzados [CinemaniaHDD]
    Language                    : Spanish
    Default                     : Yes
    Forced                      : Yes
    Statistics Tags Issue       : mkvmerge v11.0.0 ('Alive') 64bit 2019-02-12 06:20:58 / mkvmerge v11.0.0 ('Alive') 64bit 2019-02-12 06:20:58 / UTC 2019-01-31 07:56:45
    FromStats_BitRate           : 0
    FromStats_Duration          : 00:30:52.893000000
    FromStats_FrameCount        : 5
    FromStats_StreamSize        : 172

    Text #2
    ID                          : 5
    Format                      : UTF-8
    Codec ID                    : S_TEXT/UTF8
    Codec ID/Info               : UTF-8 Plain Text
    Title                       : Español latino [CinemaniaHDD]
    Language                    : Spanish
    Default                     : No
    Forced                      : No
    Statistics Tags Issue       : mkvmerge v11.0.0 ('Alive') 64bit 2019-02-12 06:20:58 / mkvmerge v11.0.0 ('Alive') 64bit 2019-02-12 06:20:58 / UTC 2019-01-31 07:56:45
    FromStats_BitRate           : 64
    FromStats_Duration          : 00:30:52.893000000
    FromStats_FrameCount        : 510
    FromStats_StreamSize        : 14845

  • Peso: 900MB Aproximado por capitulo (7.97 GB Total)

Sinopsis

Cesar, Ruby, Monse y Jamal forman un grupo de jóvenes proveniente de un barrio bajo de Los Ángeles que busca la manera de salir triunfante ante los retos que presenta la adolescencia. De esta manera, On my block plantea un conjunto de dispares situaciones como la llegada a un nuevo instituto, bandas y amistades peligrosas o las incipientes relaciones amorosas.

En esta serie, Netflix apuesta por Lauren Iungerich (Awkward) como creadora mientras que su reparto lo componen Diego Tinoco (Teen Wolf, Welcome to Valhalla), Jason Genao (Logan, The get down), Brett Gray, Sierra Capri y Jessica Marie Garcia (Liv y Maddie, Betch).

Ficha técnica

Video trailer de la película

Enlaces de descarga

Rip de Bluray

Descargar On My Block (2018) Temporada 1 NF 1080p Latino




Aportes de DPeliculasHDmega la pass es:dpeliculashdmega.org Aportes de CinemaniaHD la pass es:cinemaniahdd.com
Guardado en : Comedia , Series

Películas relacionadas

  • Yucatán (2018) NF WEB-DL 1080p Castellano

    2018
    Yucatán (2018) NF WEB-DL 1080p Castellano

    0.0 2h 10m 2018

    Lucas (Luis Tosar) y Clayderman (Rodrigo de la Serna) son dos estafadores que se dedican a timar a turistas...

    Director: Daniel Monzón

    Género: Castellano

    Actores: Xavier Lite

  • El Vacio (2018) Temporada 1 NF 1080p Latino

    2018
    El Vacio (2018) Temporada 1 NF 1080p Latino

    0.0 0h 25m 2018

    Tres adolescentes despiertan en un reino extraño lleno de portales mágicos, enigmas desconcertantes...

    Director: Vito Viscomi

    Género: Animación

    Actores: Mark Hildreth

Comentarios 0