×

¿Problemas para descargar con Mozilla, EDGE? Deshabilita la opción "Abrir vinculos en una pestaña nueva" tal como lo muestra ésta imagen.

James Bond: Al servicio de su Majestad (1969) REMUX 1080p Latino

367 vistas

Información de James Bond: Al servicio de su Majestad (1969) REMUX 1080p Latino

Datos de la película

  • Calidad: Full 1080p
  • Audio: Español Latino AC3 5.1 BLURAY - Ingles DTS 5.1 BLURAY
  • Subtitulos: Español Latino PGS - Ingles PGS
  • Resolución: 1920x1080p
  • Formato: MKV
  • Codec: H.264
  • Encoder: CinefiloCool
  • Mediainfo: Clic para Mostrar Datos Ver
  • 007 Al Servicio De Su Majestad (1969) REMUX 1080p Latino-CMHDD.mkv
    Format                      : Matroska
    Format version              : Version 4
    File size                   : 27.6 GiB
    Duration                    : 2 h 22 min
    Overall bit rate mode       : Variable
    Overall bit rate            : 27.8 Mb/s
    Movie name                  : On Her Majesty's Secret Service (1969) CinemaniaHDD.Net
    Encoded date                : UTC 2020-05-29 02:05:38
    Writing application         : mkvmerge v46.0.0 ('No Deeper Escape') 64-bit
    Writing library             : libebml v1.3.10 + libmatroska v1.5.2
    Attachments                 : CINEMANIAHD.png

    Video
    ID                          : 1
    Format                      : AVC
    Format/Info                 : Advanced Video Codec
    Format profile              : High@L4.1
    Format settings             : CABAC / 4 Ref Frames
    Format settings, CABAC      : Yes
    Format settings, Reference  : 4 frames
    Codec ID                    : V_MPEG4/ISO/AVC
    Duration                    : 2 h 22 min
    Bit rate mode               : Variable
    Bit rate                    : 23.1 Mb/s
    Maximum bit rate            : 32.0 Mb/s
    Width                       : 1 920 pixels
    Height                      : 1 080 pixels
    Display aspect ratio        : 16:9
    Frame rate mode             : Constant
    Frame rate                  : 23.976 (24000/1001) FPS
    Color space                 : YUV
    Chroma subsampling          : 4:2:0
    Bit depth                   : 8 bits
    Scan type                   : Progressive
    Bits/(Pixel*Frame)          : 0.465
    Stream size                 : 23.0 GiB (83%)
    Title                       : REMUX 1080p [CinemaniaHDD]
    Default                     : Yes
    Forced                      : No

    Audio #1
    ID                          : 2
    Format                      : AC-3
    Format/Info                 : Audio Coding 3
    Commercial name             : Dolby Digital
    Codec ID                    : A_AC3
    Duration                    : 2 h 22 min
    Bit rate mode               : Constant
    Bit rate                    : 448 kb/s
    Channel(s)                  : 6 channels
    Channel layout              : L R C LFE Ls Rs
    Sampling rate               : 48.0 kHz
    Frame rate                  : 31.250 FPS (1536 SPF)
    Compression mode            : Lossy
    Stream size                 : 456 MiB (2%)
    Title                       : Español Latino [CinemaniaHDD]
    Language                    : Spanish
    Service kind                : Complete Main
    Default                     : Yes
    Forced                      : No

    Audio #2
    ID                          : 3
    Format                      : DTS XLL
    Format/Info                 : Digital Theater Systems
    Commercial name             : DTS-HD Master Audio
    Codec ID                    : A_DTS
    Duration                    : 2 h 22 min
    Bit rate mode               : Variable
    Bit rate                    : 4 163 kb/s
    Channel(s)                  : 6 channels
    Channel layout              : C L R Ls Rs LFE
    Sampling rate               : 48.0 kHz
    Frame rate                  : 93.750 FPS (512 SPF)
    Bit depth                   : 24 bits
    Compression mode            : Lossless
    Stream size                 : 4.14 GiB (15%)
    Title                       : Ingles [CinemaniaHDD]
    Language                    : English
    Default                     : No
    Forced                      : No

    Text #1
    ID                          : 4
    Format                      : PGS
    Muxing mode                 : zlib
    Codec ID                    : S_HDMV/PGS
    Codec ID/Info               : Picture based subtitle format used on BDs/HD-DVDs
    Duration                    : 2 h 21 min
    Bit rate                    : 137 b/s
    Count of elements           : 18
    Stream size                 : 142 KiB (0%)
    Title                       : Forzados-PGS [CinemaniaHDD]
    Language                    : Spanish
    Default                     : Yes
    Forced                      : No

    Text #2
    ID                          : 5
    Format                      : PGS
    Muxing mode                 : zlib
    Codec ID                    : S_HDMV/PGS
    Codec ID/Info               : Picture based subtitle format used on BDs/HD-DVDs
    Duration                    : 2 h 21 min
    Bit rate                    : 25.5 kb/s
    Count of elements           : 2233
    Stream size                 : 25.8 MiB (0%)
    Title                       : Español-PGS [CinemaniaHDD]
    Language                    : Spanish
    Default                     : No
    Forced                      : No

    Text #3
    ID                          : 6
    Format                      : PGS
    Muxing mode                 : zlib
    Codec ID                    : S_HDMV/PGS
    Codec ID/Info               : Picture based subtitle format used on BDs/HD-DVDs
    Duration                    : 2 h 21 min
    Bit rate                    : 25.2 kb/s
    Count of elements           : 2132
    Stream size                 : 25.5 MiB (0%)
    Title                       : Ingles-PGS [CinemaniaHDD]
    Language                    : English
    Default                     : No
    Forced                      : No

    Text #4
    ID                          : 7
    Format                      : UTF-8
    Codec ID                    : S_TEXT/UTF8
    Codec ID/Info               : UTF-8 Plain Text
    Duration                    : 2 h 21 min
    Bit rate                    : 0 b/s
    Count of elements           : 8
    Stream size                 : 199 Bytes (0%)
    Title                       : Forzados-SRT [CinemaniaHDD]
    Language                    : Spanish
    Default                     : No
    Forced                      : No

    Text #5
    ID                          : 8
    Format                      : UTF-8
    Codec ID                    : S_TEXT/UTF8
    Codec ID/Info               : UTF-8 Plain Text
    Duration                    : 2 h 21 min
    Bit rate                    : 40 b/s
    Count of elements           : 1110
    Stream size                 : 42.4 KiB (0%)
    Title                       : Español-SRT [CinemaniaHDD]
    Language                    : Spanish
    Default                     : No
    Forced                      : No

    Menu
    00:00:00.000                : en:Logo/Introduction
    00:01:28.255                : en:Beach Rescue
    00:06:56.833                : en:Credits/Main Title
    00:09:28.443                : en:Queen Of Hearts
    00:14:07.305                : en:Unexpected Guest
    00:15:43.442                : en:Full Of Surprises
    00:19:43.933                : en:Draco's Proposal
    00:26:47.105                : en:Calling It Quits
    00:30:36.251                : en:Daddy's Girl
    00:34:59.014                : en:A Bond Exclusive
    00:37:13.314                : en:Break-In
    00:43:52.129                : en:Trading Places
    00:47:43.027                : en:To The Alps
    00:54:49.870                : en:A Cozy Place
    00:57:09.217                : en:The Alpine Room
    01:02:37.253                : en:Meeting With Blofeld
    01:06:04.669                : en:Playtime
    01:13:21.063                : en:Private Property
    01:18:08.058                : en:A Madman's Plan
    01:22:19.184                : en:High-Wire Act
    01:29:14.933                : en:Crashing The Party
    01:31:36.282                : en:Downhill Escape
    01:38:32.198                : en:Lost In The Crowd
    01:44:17.668                : en:Love To The Rescue
    01:48:26.625                : en:Wedding Plans
    01:53:53.035                : en:Avalanche!
    01:58:39.321                : en:Help Wanted
    02:00:46.906                : en:Rescue Mission
    02:05:41.868                : en:Self-Preservation
    02:09:09.909                : en:Bond-Sledding
    02:11:52.404                : en:Mrs. James Bond
    02:15:41.759                : en:End Credits

  • Peso: 27.6 GiB

Sinopsis

Descargar James Bond: Al servicio de su Majestad (1969) REMUX 1080p Latino. Tras la marcha temporal de Connery, el actor australiano George Lazenby toma el relevo en esta nueva aventura del agente británico 007, que en esta ocasión se asocia a un mafioso -con cuya sensual hija Tracy Di Vicenzo (Diana Rigg) se llega a casar-, para unir sus fuerzas en la lucha contra la malvada organización Spectra. Ambientada en los alpes suizos, el malvado Stavro Blofeld -Savalas- amenaza al mundo entero con un malvado plan: desarrollar y lanzar una peligrosa bacteria que podría acabar con millones de personal en todo el planeta. La ausencia del actor escocés y el poco carisma de Lazenby hicieron de esta entrega uno de sus mayores fracasos comerciales, pero en años posteriores no han faltado los defensores que la reivindican como una de las más interesantes de toda la saga.

Ficha técnica

Video trailer de la película

Enlaces de descarga

Rip de Bluray

Descargar James Bond: Al servicio de su Majestad (1969) REMUX 1080p Latino




Aportes de DPeliculasHDmega la pass es:dpeliculashdmega.org Aportes de CinemaniaHD la pass es:cinemaniahdd.com
Guardado en : Acción , Aventura , Remux , Suspenso

Películas relacionadas

  • Hombre de familia (2000) REMUX 1080p Latino

    Hombre de familia (2000) REMUX 1080p Latino

    2000
    Hombre de familia (2000) REMUX 1080p Latino

    2h 1m 2000

    Descargar Hombre de familia (2000) REMUX 1080p Latino. Jack Campbell es un egocéntrico broker de Wall...

    Director: Robert Schroer

    Género: Comedia

    Actores: Wass Stevens

  • Anon (2018) REMUX 1080p Latino

    Anon (2018) REMUX 1080p Latino

    2018
    Anon (2018) REMUX 1080p Latino

    1h 40m 2018

    Descargar Anon (2018) REMUX 1080p Latino. Anon nos lleva hasta un futuro no muy lejano al estilo soviético,...

    Director: Sarah Campbell

    Género: Ciencia ficción

    Actores: Zion Lee

descargar James Bond: Al servicio de su Majestad (1969) REMUX 1080p Latino Full 1080p 1080p gratis, James Bond: Al servicio de su Majestad (1969) REMUX 1080p Latino Full 1080p mega 1 link, James Bond: Al servicio de su Majestad (1969) REMUX 1080p Latino Full 1080p pelicula completa, descargar James Bond: Al servicio de su Majestad (1969) REMUX 1080p Latino Full 1080p gratis en mega.

James Bond: Al servicio de su Majestad (1969) REMUX 1080p Latino pelicula full hd, James Bond: Al servicio de su Majestad (1969) REMUX 1080p Latino mega latino, James Bond: Al servicio de su Majestad (1969) REMUX 1080p Latino 4k latino, James Bond: Al servicio de su Majestad (1969) REMUX 1080p Latino pelicula completa, James Bond: Al servicio de su Majestad (1969) REMUX 1080p Latino descargar gratis, descargar James Bond: Al servicio de su Majestad (1969) REMUX 1080p Latino pelicula latino, James Bond: Al servicio de su Majestad (1969) REMUX 1080p Latino 1 link mega, James Bond: Al servicio de su Majestad (1969) REMUX 1080p Latino 1 link google drive, James Bond: Al servicio de su Majestad (1969) REMUX 1080p Latino hd 1080p latino.
Comentarios 0