×

¿Problemas para descargar con Mozilla, EDGE? Deshabilita la opción "Abrir vinculos en una pestaña nueva" tal como lo muestra ésta imagen.

James Bond: Al servicio de su Majestad (1969) 1080p Latino

310 vistas

Información de James Bond: Al servicio de su Majestad (1969) 1080p Latino

Datos de la película

  • Calidad: 1080p
  • Audio: Español Latino AC3 5.1 BLURAY - Ingles AC3 5.1 BLURAY
  • Subtitulos: Español Latino SRT - Ingles SRT
  • Resolución: 1920x818p
  • Formato: MKV
  • Codec: H.264
  • Encoder: CinefiloCool
  • Mediainfo: Clic para Mostrar Datos Ver
  • 007 Al Servicio De Su Majestad (1969) 1080p Latino-CMHDD.mkv
    Format                      : Matroska
    Format version              : Version 4
    File size                   : 5.15 GiB
    Duration                    : 2 h 22 min
    Overall bit rate mode       : Variable
    Overall bit rate            : 5 186 kb/s
    Movie name                  : On Her Majesty's Secret Service (1969) CinemaniaHDD.Net
    Encoded date                : UTC 2020-05-29 02:09:18
    Writing application         : mkvmerge v46.0.0 ('No Deeper Escape') 64-bit
    Writing library             : libebml v1.3.10 + libmatroska v1.5.2
    Attachments                 : CINEMANIAHD.png

    Video
    ID                          : 1
    Format                      : AVC
    Format/Info                 : Advanced Video Codec
    Format profile              : High@L4
    Format settings             : CABAC / 3 Ref Frames
    Format settings, CABAC      : Yes
    Format settings, Reference  : 3 frames
    Codec ID                    : V_MPEG4/ISO/AVC
    Duration                    : 2 h 22 min
    Bit rate mode               : Variable
    Bit rate                    : 4 096 kb/s
    Width                       : 1 920 pixels
    Height                      : 818 pixels
    Display aspect ratio        : 2.35:1
    Frame rate mode             : Constant
    Frame rate                  : 23.976 (24000/1001) FPS
    Color space                 : YUV
    Chroma subsampling          : 4:2:0
    Bit depth                   : 8 bits
    Scan type                   : Progressive
    Bits/(Pixel*Frame)          : 0.109
    Stream size                 : 4.07 GiB (79%)
    Title                       : HD1080p [CinemaniaHDD]
    Writing library             : x264 core 142 r2479 dd79a61
    Encoding settings           : cabac=1 / ref=3 / deblock=1:0:0 / analyse=0x3:0x113 / me=hex / subme=7 / psy=1 / psy_rd=1.00:0.00 / mixed_ref=1 / me_range=16 / chroma_me=1 / trellis=1 / 8x8dct=1 / cqm=0 / deadzone=21,11 / fast_pskip=1 / chroma_qp_offset=-2 / threads=6 / lookahead_threads=1 / sliced_threads=0 / nr=0 / decimate=1 / interlaced=0 / bluray_compat=0 / constrained_intra=0 / bframes=3 / b_pyramid=0 / b_adapt=1 / b_bias=0 / direct=1 / weightb=1 / open_gop=0 / weightp=2 / keyint=240 / keyint_min=24 / scenecut=40 / intra_refresh=0 / rc_lookahead=40 / rc=2pass / mbtree=1 / bitrate=4096 / ratetol=1.0 / qcomp=0.60 / qpmin=0 / qpmax=69 / qpstep=4 / cplxblur=20.0 / qblur=0.5 / vbv_maxrate=25000 / vbv_bufsize=25000 / nal_hrd=vbr / filler=0 / ip_ratio=1.40 / aq=1:1.00
    Default                     : Yes
    Forced                      : No

    Audio #1
    ID                          : 2
    Format                      : AC-3
    Format/Info                 : Audio Coding 3
    Commercial name             : Dolby Digital
    Codec ID                    : A_AC3
    Duration                    : 2 h 22 min
    Bit rate mode               : Constant
    Bit rate                    : 448 kb/s
    Channel(s)                  : 6 channels
    Channel layout              : L R C LFE Ls Rs
    Sampling rate               : 48.0 kHz
    Frame rate                  : 31.250 FPS (1536 SPF)
    Compression mode            : Lossy
    Stream size                 : 456 MiB (9%)
    Title                       : Español Latino [CinemaniaHDD]
    Language                    : Spanish
    Service kind                : Complete Main
    Default                     : Yes
    Forced                      : No

    Audio #2
    ID                          : 3
    Format                      : AC-3
    Format/Info                 : Audio Coding 3
    Commercial name             : Dolby Digital
    Codec ID                    : A_AC3
    Duration                    : 2 h 22 min
    Bit rate mode               : Constant
    Bit rate                    : 640 kb/s
    Channel(s)                  : 6 channels
    Channel layout              : L R C LFE Ls Rs
    Sampling rate               : 48.0 kHz
    Frame rate                  : 31.250 FPS (1536 SPF)
    Compression mode            : Lossy
    Stream size                 : 651 MiB (12%)
    Title                       : Ingles [CinemaniaHDD]
    Language                    : English
    Service kind                : Complete Main
    Default                     : No
    Forced                      : No

    Text #1
    ID                          : 4
    Format                      : UTF-8
    Codec ID                    : S_TEXT/UTF8
    Codec ID/Info               : UTF-8 Plain Text
    Duration                    : 2 h 21 min
    Bit rate                    : 0 b/s
    Count of elements           : 8
    Stream size                 : 199 Bytes (0%)
    Title                       : Forzados-SRT [CinemaniaHDD]
    Language                    : Spanish
    Default                     : Yes
    Forced                      : No

    Text #2
    ID                          : 5
    Format                      : UTF-8
    Codec ID                    : S_TEXT/UTF8
    Codec ID/Info               : UTF-8 Plain Text
    Duration                    : 2 h 21 min
    Bit rate                    : 40 b/s
    Count of elements           : 1110
    Stream size                 : 42.4 KiB (0%)
    Title                       : Español-SRT [CinemaniaHDD]
    Language                    : Spanish
    Default                     : No
    Forced                      : No

    Text #3
    ID                          : 6
    Format                      : UTF-8
    Codec ID                    : S_TEXT/UTF8
    Codec ID/Info               : UTF-8 Plain Text
    Duration                    : 2 h 19 min
    Bit rate                    : 44 b/s
    Count of elements           : 1199
    Stream size                 : 45.5 KiB (0%)
    Title                       : Ingles-SRT [CinemaniaHDD]
    Language                    : English
    Default                     : No
    Forced                      : No

    Menu
    00:00:00.000                : en:Logo/Introduction
    00:01:28.255                : en:Beach Rescue
    00:06:56.833                : en:Credits/Main Title
    00:09:28.443                : en:Queen Of Hearts
    00:14:07.305                : en:Unexpected Guest
    00:15:43.442                : en:Full Of Surprises
    00:19:43.933                : en:Draco's Proposal
    00:26:47.105                : en:Calling It Quits
    00:30:36.251                : en:Daddy's Girl
    00:34:59.014                : en:A Bond Exclusive
    00:37:13.314                : en:Break-In
    00:43:52.129                : en:Trading Places
    00:47:43.027                : en:To The Alps
    00:54:49.870                : en:A Cozy Place
    00:57:09.217                : en:The Alpine Room
    01:02:37.253                : en:Meeting With Blofeld
    01:06:04.669                : en:Playtime
    01:13:21.063                : en:Private Property
    01:18:08.058                : en:A Madman's Plan
    01:22:19.184                : en:High-Wire Act
    01:29:14.933                : en:Crashing The Party
    01:31:36.282                : en:Downhill Escape
    01:38:32.198                : en:Lost In The Crowd
    01:44:17.668                : en:Love To The Rescue
    01:48:26.625                : en:Wedding Plans
    01:53:53.035                : en:Avalanche!
    01:58:39.321                : en:Help Wanted
    02:00:46.906                : en:Rescue Mission
    02:05:41.868                : en:Self-Preservation
    02:09:09.909                : en:Bond-Sledding
    02:11:52.404                : en:Mrs. James Bond
    02:15:41.759                : en:End Credits

  • Peso: 5.15 GiB

Sinopsis

Descargar James Bond: Al servicio de su Majestad (1969) 1080p Latino. Tras la marcha temporal de Connery, el actor australiano George Lazenby toma el relevo en esta nueva aventura del agente británico 007, que en esta ocasión se asocia a un mafioso -con cuya sensual hija Tracy Di Vicenzo (Diana Rigg) se llega a casar-, para unir sus fuerzas en la lucha contra la malvada organización Spectra. Ambientada en los alpes suizos, el malvado Stavro Blofeld -Savalas- amenaza al mundo entero con un malvado plan: desarrollar y lanzar una peligrosa bacteria que podría acabar con millones de personal en todo el planeta. La ausencia del actor escocés y el poco carisma de Lazenby hicieron de esta entrega uno de sus mayores fracasos comerciales, pero en años posteriores no han faltado los defensores que la reivindican como una de las más interesantes de toda la saga.

Ficha técnica

Video trailer de la película

Enlaces de descarga

Rip de Bluray

Descargar James Bond: Al servicio de su Majestad (1969) 1080p Latino




Aportes de DPeliculasHDmega la pass es:dpeliculashdmega.org Aportes de CinemaniaHD la pass es:cinemaniahdd.com
Guardado en : Acción , Aventura , HD 1080p , Suspenso

Películas relacionadas

  • DC Liga De Supermascotas (2022) HD 1080p Latino

    DC Liga De Supermascotas (2022) HD 1080p Latino

    2022
    DC Liga De Supermascotas (2022) HD 1080p Latino

    1h 45m 2022

    Descargar DC Liga De Supermascotas (2022) HD 1080p Latino. Krypto el Superperro y Superman son amigos...

    Director: Sam Levine

    Género: Acción

    Actores: Yvette Nicole Brown

  • Invitacion Al Infierno (2022) MA WEB-DL 1080p Latino

    Invitacion Al Infierno (2022) MA WEB-DL 1080p Latino

    2022
    Invitacion Al Infierno (2022) MA WEB-DL 1080p Latino

    1h 45m 2022

    Descargar Invitacion Al Infierno (2022) MA WEB-DL 1080p Latino. Tras la muerte de su madre y quedarse...

    Director: Jessica M. Thompson

    Género: Suspenso

    Actores: Virág Bárány

  • Tremors (1990) REMUX 4K HDR Latino – CMHDD

    Tremors (1990) REMUX 4K HDR Latino – CMHDD

    1990
    Tremors (1990) REMUX 4K HDR Latino – CMHDD

    1h 35m 1990

    En Perfección, un pequeño pueblo al borde del desierto de Nevada, algo parece suceder debajo de la...

    Director: Susan Bierbaum

    Género: Acción

    Actores: Victor Wong

descargar James Bond: Al servicio de su Majestad (1969) 1080p Latino 1080p 1080p gratis, James Bond: Al servicio de su Majestad (1969) 1080p Latino 1080p mega 1 link, James Bond: Al servicio de su Majestad (1969) 1080p Latino 1080p pelicula completa, descargar James Bond: Al servicio de su Majestad (1969) 1080p Latino 1080p gratis en mega.

James Bond: Al servicio de su Majestad (1969) 1080p Latino pelicula full hd, James Bond: Al servicio de su Majestad (1969) 1080p Latino mega latino, James Bond: Al servicio de su Majestad (1969) 1080p Latino 4k latino, James Bond: Al servicio de su Majestad (1969) 1080p Latino pelicula completa, James Bond: Al servicio de su Majestad (1969) 1080p Latino descargar gratis, descargar James Bond: Al servicio de su Majestad (1969) 1080p Latino pelicula latino, James Bond: Al servicio de su Majestad (1969) 1080p Latino 1 link mega, James Bond: Al servicio de su Majestad (1969) 1080p Latino 1 link google drive, James Bond: Al servicio de su Majestad (1969) 1080p Latino hd 1080p latino.
Comentarios 0