×

¿Problemas para descargar con Mozilla, EDGE? Deshabilita la opción "Abrir vinculos en una pestaña nueva" tal como lo muestra ésta imagen.

James Bond: Al servicio de su Majestad (1969) Full HD 1080p Latino

932 vistas

Información de James Bond: Al servicio de su Majestad (1969) Full HD 1080p Latino

Datos de la película

  • Calidad: Full 1080p
  • Audio: Español Latino AC3 5.1 BLURAY - Ingles DTS 5.1 BLURAY
  • Subtitulos: Español Latino PGS - Ingles PGS
  • Resolución: 1920x1080p
  • Formato: MKV
  • Codec: H.264
  • Encoder: Dracarys
  • Mediainfo: Clic para Mostrar Datos Ver
  • 007 Al Servicio De Su Majestad (1969) Full HD 1080p Latino-CMHDD.mkv
    Format                      : Matroska
    Format version              : Version 4
    File size                   : 8.73 GiB
    Duration                    : 2 h 22 min
    Overall bit rate            : 8 778 kb/s
    Movie name                  : On Her Majesty's Secret Service (1969) CinemaniaHDD.Net
    Encoded date                : UTC 2020-05-29 02:02:41
    Writing application         : mkvmerge v46.0.0 ('No Deeper Escape') 64-bit
    Writing library             : libebml v1.3.10 + libmatroska v1.5.2
    Attachments                 : CINEMANIAHD.png

    Video
    ID                          : 1
    Format                      : AVC
    Format/Info                 : Advanced Video Codec
    Format profile              : High@L4.1
    Format settings             : CABAC / 4 Ref Frames
    Format settings, CABAC      : Yes
    Format settings, Reference  : 4 frames
    Codec ID                    : V_MPEG4/ISO/AVC
    Duration                    : 2 h 22 min
    Bit rate                    : 6 803 kb/s
    Width                       : 1 920 pixels
    Height                      : 1 080 pixels
    Display aspect ratio        : 16:9
    Frame rate mode             : Constant
    Frame rate                  : 23.976 (24000/1001) FPS
    Color space                 : YUV
    Chroma subsampling          : 4:2:0
    Bit depth                   : 8 bits
    Scan type                   : Progressive
    Bits/(Pixel*Frame)          : 0.137
    Stream size                 : 6.76 GiB (77%)
    Title                       : Full HD1080p [CinemaniaHDD]
    Writing library             : x264 core 148 r2708 86b7198
    Encoding settings           : cabac=1 / ref=4 / deblock=1:0:0 / analyse=0x3:0x133 / me=esa / subme=10 / psy=1 / psy_rd=1.00:0.00 / mixed_ref=1 / me_range=24 / chroma_me=1 / trellis=2 / 8x8dct=1 / cqm=0 / deadzone=21,11 / fast_pskip=1 / chroma_qp_offset=-2 / threads=34 / lookahead_threads=5 / sliced_threads=0 / nr=0 / decimate=1 / interlaced=0 / bluray_compat=0 / constrained_intra=0 / bframes=8 / b_pyramid=2 / b_adapt=2 / b_bias=0 / direct=3 / weightb=1 / open_gop=0 / weightp=2 / keyint=240 / keyint_min=24 / scenecut=40 / intra_refresh=0 / rc_lookahead=60 / rc=crf / mbtree=1 / crf=20.0 / qcomp=0.60 / qpmin=0 / qpmax=69 / qpstep=4 / vbv_maxrate=62500 / vbv_bufsize=78125 / crf_max=0.0 / nal_hrd=none / filler=0 / ip_ratio=1.40 / aq=1:1.00
    Language                    : English
    Default                     : Yes
    Forced                      : No
    Color range                 : Limited
    Color primaries             : BT.709
    Transfer characteristics    : BT.709
    Matrix coefficients         : BT.709

    Audio #1
    ID                          : 2
    Format                      : AC-3
    Format/Info                 : Audio Coding 3
    Commercial name             : Dolby Digital
    Codec ID                    : A_AC3
    Duration                    : 2 h 22 min
    Bit rate mode               : Constant
    Bit rate                    : 448 kb/s
    Channel(s)                  : 6 channels
    Channel layout              : L R C LFE Ls Rs
    Sampling rate               : 48.0 kHz
    Frame rate                  : 31.250 FPS (1536 SPF)
    Compression mode            : Lossy
    Stream size                 : 456 MiB (5%)
    Title                       : Español Latino [CinemaniaHDD]
    Language                    : Spanish
    Service kind                : Complete Main
    Default                     : Yes
    Forced                      : No

    Audio #2
    ID                          : 3
    Format                      : DTS
    Format/Info                 : Digital Theater Systems
    Codec ID                    : A_DTS
    Duration                    : 2 h 22 min
    Bit rate mode               : Constant
    Bit rate                    : 1 509 kb/s
    Channel(s)                  : 6 channels
    Channel layout              : C L R Ls Rs LFE
    Sampling rate               : 48.0 kHz
    Frame rate                  : 93.750 FPS (512 SPF)
    Bit depth                   : 24 bits
    Compression mode            : Lossy
    Stream size                 : 1.50 GiB (17%)
    Title                       : Ingles [CinemaniaHDD]
    Language                    : English
    Default                     : No
    Forced                      : No

    Text #1
    ID                          : 4
    Format                      : PGS
    Muxing mode                 : zlib
    Codec ID                    : S_HDMV/PGS
    Codec ID/Info               : Picture based subtitle format used on BDs/HD-DVDs
    Duration                    : 2 h 21 min
    Bit rate                    : 137 b/s
    Count of elements           : 18
    Stream size                 : 142 KiB (0%)
    Title                       : Forzados-PGS [CinemaniaHDD]
    Language                    : Spanish
    Default                     : Yes
    Forced                      : No

    Text #2
    ID                          : 5
    Format                      : PGS
    Muxing mode                 : zlib
    Codec ID                    : S_HDMV/PGS
    Codec ID/Info               : Picture based subtitle format used on BDs/HD-DVDs
    Duration                    : 2 h 21 min
    Bit rate                    : 25.5 kb/s
    Count of elements           : 2233
    Stream size                 : 25.8 MiB (0%)
    Title                       : Español-PGS [CinemaniaHDD]
    Language                    : Spanish
    Default                     : No
    Forced                      : No

    Text #3
    ID                          : 6
    Format                      : PGS
    Muxing mode                 : zlib
    Codec ID                    : S_HDMV/PGS
    Codec ID/Info               : Picture based subtitle format used on BDs/HD-DVDs
    Duration                    : 2 h 21 min
    Bit rate                    : 28.3 kb/s
    Count of elements           : 2622
    Stream size                 : 28.8 MiB (0%)
    Title                       : Ingles-PGS [CinemaniaHDD]
    Language                    : English
    Default                     : No
    Forced                      : No

    Text #4
    ID                          : 7
    Format                      : UTF-8
    Codec ID                    : S_TEXT/UTF8
    Codec ID/Info               : UTF-8 Plain Text
    Duration                    : 2 h 21 min
    Bit rate                    : 0 b/s
    Count of elements           : 8
    Stream size                 : 199 Bytes (0%)
    Title                       : Forzados-SRT [CinemaniaHDD]
    Language                    : Spanish
    Default                     : No
    Forced                      : No

    Text #5
    ID                          : 8
    Format                      : UTF-8
    Codec ID                    : S_TEXT/UTF8
    Codec ID/Info               : UTF-8 Plain Text
    Duration                    : 2 h 21 min
    Bit rate                    : 40 b/s
    Count of elements           : 1110
    Stream size                 : 42.4 KiB (0%)
    Title                       : Español-SRT [CinemaniaHDD]
    Language                    : Spanish
    Default                     : No
    Forced                      : No

    Menu
    00:00:00.000                : :Chapter 1
    00:01:28.255                : :Chapter 2
    00:06:56.833                : :Chapter 3
    00:09:28.443                : :Chapter 4
    00:14:07.305                : :Chapter 5
    00:15:43.443                : :Chapter 6
    00:19:43.933                : :Chapter 7
    00:26:47.106                : :Chapter 8
    00:30:36.251                : :Chapter 9
    00:34:59.014                : :Chapter 10
    00:37:13.314                : :Chapter 11
    00:43:52.130                : :Chapter 12
    00:47:43.027                : :Chapter 13
    00:54:49.870                : :Chapter 14
    00:57:09.217                : :Chapter 15
    01:02:37.254                : :Chapter 16
    01:06:04.669                : :Chapter 17
    01:13:21.063                : :Chapter 18
    01:18:08.058                : :Chapter 19
    01:22:19.184                : :Chapter 20
    01:29:14.933                : :Chapter 21
    01:31:36.282                : :Chapter 22
    01:38:32.198                : :Chapter 23
    01:44:17.668                : :Chapter 24
    01:48:26.625                : :Chapter 25
    01:53:53.035                : :Chapter 26
    01:58:39.321                : :Chapter 27
    02:00:46.906                : :Chapter 28
    02:05:41.868                : :Chapter 29
    02:09:09.909                : :Chapter 30
    02:11:52.405                : :Chapter 31
    02:15:41.759                : :Chapter 32

  • Peso: 8.73 GiB

Sinopsis

Descargar James Bond: Al servicio de su Majestad (1969) Full HD 1080p Latino. Tras la marcha temporal de Connery, el actor australiano George Lazenby toma el relevo en esta nueva aventura del agente británico 007, que en esta ocasión se asocia a un mafioso -con cuya sensual hija Tracy Di Vicenzo (Diana Rigg) se llega a casar-, para unir sus fuerzas en la lucha contra la malvada organización Spectra. Ambientada en los alpes suizos, el malvado Stavro Blofeld -Savalas- amenaza al mundo entero con un malvado plan: desarrollar y lanzar una peligrosa bacteria que podría acabar con millones de personal en todo el planeta. La ausencia del actor escocés y el poco carisma de Lazenby hicieron de esta entrega uno de sus mayores fracasos comerciales, pero en años posteriores no han faltado los defensores que la reivindican como una de las más interesantes de toda la saga.

RESUBIDO!

Ficha técnica

Video trailer de la película

Enlaces de descarga

Rip de Bluray

Descargar James Bond: Al servicio de su Majestad (1969) Full HD 1080p Latino




Aportes de DPeliculasHDmega la pass es:dpeliculashdmega.org Aportes de CinemaniaHD la pass es:cinemaniahdd.com

Películas relacionadas

descargar James Bond: Al servicio de su Majestad (1969) Full HD 1080p Latino Full 1080p 1080p gratis, James Bond: Al servicio de su Majestad (1969) Full HD 1080p Latino Full 1080p mega 1 link, James Bond: Al servicio de su Majestad (1969) Full HD 1080p Latino Full 1080p pelicula completa, descargar James Bond: Al servicio de su Majestad (1969) Full HD 1080p Latino Full 1080p gratis en mega.

James Bond: Al servicio de su Majestad (1969) Full HD 1080p Latino pelicula full hd, James Bond: Al servicio de su Majestad (1969) Full HD 1080p Latino mega latino, James Bond: Al servicio de su Majestad (1969) Full HD 1080p Latino 4k latino, James Bond: Al servicio de su Majestad (1969) Full HD 1080p Latino pelicula completa, James Bond: Al servicio de su Majestad (1969) Full HD 1080p Latino descargar gratis, descargar James Bond: Al servicio de su Majestad (1969) Full HD 1080p Latino pelicula latino, James Bond: Al servicio de su Majestad (1969) Full HD 1080p Latino 1 link mega, James Bond: Al servicio de su Majestad (1969) Full HD 1080p Latino 1 link google drive, James Bond: Al servicio de su Majestad (1969) Full HD 1080p Latino hd 1080p latino.
Comentarios 0