×

¿Problemas para descargar con Mozilla, EDGE? Deshabilita la opción "Abrir vinculos en una pestaña nueva" tal como lo muestra ésta imagen.

En la playa de Chesil (2017) REMUX 1080p Latino

188 vistas

Información de En la playa de Chesil (2017) REMUX 1080p Latino

Datos de la película

  • Calidad: Full 1080p
  • Audio: Español Latino AC3 5.1 DVD - Ingles DTS 5.1 BLURAY
  • Subtitulos: Español Latino PGS - Ingles PGS
  • Resolución: 1920x1080p
  • Formato: MKV
  • Codec: H.264
  • Encoder: CinefiloCool
  • Mediainfo: Clic para Mostrar Datos Ver
  • En La Playa Chesil (2017) REMUX 1080p Latino-CMHDD.mkv
    Format                      : Matroska
    Format version              : Version 4
    File size                   : 30.9 GiB
    Duration                    : 1 h 50 min
    Overall bit rate mode       : Variable
    Overall bit rate            : 40.1 Mb/s
    Movie name                  : On Chesil Beach (2017) CinemaniaHDD.Net
    Encoded date                : UTC 2022-07-19 04:24:30
    Writing application         : mkvmerge v56.1.0 ('My Friend') 64-bit
    Writing library             : libebml v1.4.2 + libmatroska v1.6.4
    Attachments                 : CINEMANIAHD.png

    Video
    ID                          : 1
    Format                      : AVC
    Format/Info                 : Advanced Video Codec
    Format profile              : High@L4.1
    Format settings             : CABAC / 4 Ref Frames
    Format settings, CABAC      : Yes
    Format settings, Reference  : 4 frames
    Codec ID                    : V_MPEG4/ISO/AVC
    Duration                    : 1 h 50 min
    Bit rate mode               : Variable
    Bit rate                    : 36.2 Mb/s
    Maximum bit rate            : 40.0 Mb/s
    Width                       : 1 920 pixels
    Height                      : 1 080 pixels
    Display aspect ratio        : 16:9
    Frame rate mode             : Constant
    Frame rate                  : 23.976 (24000/1001) FPS
    Color space                 : YUV
    Chroma subsampling          : 4:2:0
    Bit depth                   : 8 bits
    Scan type                   : Progressive
    Bits/(Pixel*Frame)          : 0.728
    Stream size                 : 27.9 GiB (90%)
    Title                       : REMUX HD1080p [CinemaniaHDD]
    Language                    : English
    Default                     : Yes
    Forced                      : Yes

    Audio #1
    ID                          : 2
    Format                      : AC-3
    Format/Info                 : Audio Coding 3
    Commercial name             : Dolby Digital
    Codec ID                    : A_AC3
    Duration                    : 1 h 50 min
    Bit rate mode               : Constant
    Bit rate                    : 448 kb/s
    Channel(s)                  : 6 channels
    Channel layout              : L R C LFE Ls Rs
    Sampling rate               : 48.0 kHz
    Frame rate                  : 31.250 FPS (1536 SPF)
    Compression mode            : Lossy
    Stream size                 : 354 MiB (1%)
    Title                       : Español Latino [CinemaniaHDD]
    Language                    : Spanish
    Service kind                : Complete Main
    Default                     : Yes
    Forced                      : Yes

    Audio #2
    ID                          : 3
    Format                      : DTS XLL
    Format/Info                 : Digital Theater Systems
    Commercial name             : DTS-HD Master Audio
    Codec ID                    : A_DTS
    Duration                    : 1 h 50 min
    Bit rate mode               : Variable
    Bit rate                    : 3 383 kb/s
    Channel(s)                  : 6 channels
    Channel layout              : C L R Ls Rs LFE
    Sampling rate               : 48.0 kHz
    Frame rate                  : 93.750 FPS (512 SPF)
    Bit depth                   : 24 bits
    Compression mode            : Lossless
    Stream size                 : 2.61 GiB (8%)
    Title                       : Ingles [CinemaniaHDD]
    Language                    : English
    Default                     : No
    Forced                      : No

    Text #1
    ID                          : 4
    Format                      : PGS
    Muxing mode                 : zlib
    Codec ID                    : S_HDMV/PGS
    Codec ID/Info               : Picture based subtitle format used on BDs/HD-DVDs
    Duration                    : 1 h 47 min
    Bit rate                    : 27.2 kb/s
    Count of elements           : 2126
    Stream size                 : 21.0 MiB (0%)
    Title                       : Español-PGS [CinemaniaHDD]
    Language                    : Spanish
    Default                     : No
    Forced                      : No

    Text #2
    ID                          : 5
    Format                      : PGS
    Muxing mode                 : zlib
    Codec ID                    : S_HDMV/PGS
    Codec ID/Info               : Picture based subtitle format used on BDs/HD-DVDs
    Duration                    : 1 h 45 min
    Bit rate                    : 32.6 kb/s
    Count of elements           : 2428
    Stream size                 : 24.7 MiB (0%)
    Title                       : Ingles-PGS [CinemaniaHDD]
    Language                    : English
    Default                     : No
    Forced                      : No

    Text #3
    ID                          : 6
    Format                      : UTF-8
    Codec ID                    : S_TEXT/UTF8
    Codec ID/Info               : UTF-8 Plain Text
    Duration                    : 1 h 19 min
    Bit rate                    : 0 b/s
    Count of elements           : 7
    Stream size                 : 243 Bytes (0%)
    Title                       : Forzados-SRT [CinemaniaHDD]
    Language                    : Spanish
    Default                     : Yes
    Forced                      : Yes

    Text #4
    ID                          : 7
    Format                      : UTF-8
    Codec ID                    : S_TEXT/UTF8
    Codec ID/Info               : UTF-8 Plain Text
    Duration                    : 1 h 41 min
    Bit rate                    : 47 b/s
    Count of elements           : 1062
    Stream size                 : 35.5 KiB (0%)
    Title                       : Español-SRT [CinemaniaHDD]
    Language                    : Spanish
    Default                     : No
    Forced                      : No

    Menu
    00:00:00.000                : 00:00:00.000
    00:05:41.967                : 00:05:41.967
    00:10:42.684                : 00:10:42.684
    00:15:21.254                : 00:15:21.254
    00:22:48.200                : 00:22:48.200
    00:27:47.791                : 00:27:47.791
    00:35:05.687                : 00:35:05.687
    00:39:16.688                : 00:39:16.688
    00:46:40.923                : 00:46:40.923
    00:52:19.845                : 00:52:19.845
    00:56:49.906                : 00:56:49.906
    00:59:48.835                : 00:59:48.835
    01:04:30.116                : 01:04:30.116
    01:09:09.312                : 01:09:09.312
    01:15:12.425                : 01:15:12.425
    01:20:56.435                : 01:20:56.435
    01:25:03.849                : 01:25:03.849
    01:30:34.679                : 01:30:34.679
    01:38:00.166                : 01:38:00.166
    01:45:24.318                : 01:45:24.318

  • Peso: 30.9 GiB

Sinopsis

Descargar En la playa de Chesil (2017) REMUX 1080p Latino. En 1962, en Inglaterra, una joven pareja encuentra su romance idílico colisionando con los problemas de la libertad sexual y la presión social, lo que lleva a una noche de bodas incómoda y fatídica.

Disponible Solo Para VIP!!!!

Ficha técnica

Video trailer de la película

Enlaces de descarga

Rip de Bluray

Descargar En la playa de Chesil (2017) REMUX 1080p Latino


Aportes de DPeliculasHDmega la pass es:dpeliculashdmega.org Aportes de CinemaniaHD la pass es:cinemaniahdd.com
Guardado en : Drama , Remux , Romance

Películas relacionadas

descargar En la playa de Chesil (2017) REMUX 1080p Latino Full 1080p 1080p gratis, En la playa de Chesil (2017) REMUX 1080p Latino Full 1080p mega 1 link, En la playa de Chesil (2017) REMUX 1080p Latino Full 1080p pelicula completa, descargar En la playa de Chesil (2017) REMUX 1080p Latino Full 1080p gratis en mega.

En la playa de Chesil (2017) REMUX 1080p Latino pelicula full hd, En la playa de Chesil (2017) REMUX 1080p Latino mega latino, En la playa de Chesil (2017) REMUX 1080p Latino 4k latino, En la playa de Chesil (2017) REMUX 1080p Latino pelicula completa, En la playa de Chesil (2017) REMUX 1080p Latino descargar gratis, descargar En la playa de Chesil (2017) REMUX 1080p Latino pelicula latino, En la playa de Chesil (2017) REMUX 1080p Latino 1 link mega, En la playa de Chesil (2017) REMUX 1080p Latino 1 link google drive, En la playa de Chesil (2017) REMUX 1080p Latino hd 1080p latino.
Comentarios 0