×

¿Problemas para descargar con Mozilla, EDGE? Deshabilita la opción "Abrir vinculos en una pestaña nueva" tal como lo muestra ésta imagen.

Oliver y su pandilla (1988) REMUX 1080p Latino – CMHDD

303 vistas

Información de Oliver y su pandilla (1988) REMUX 1080p Latino – CMHDD

Datos de la película

  • Calidad: Full 1080p
  • Audio: Español Latino AC3 5.1 BLURAY - Ingles DTS 5.1 BLURAY
  • Subtitulos: Español Latino SRT- FORZADOS SRT
  • Resolución: 1920x1080p
  • Formato: MKV
  • Codec: H.264
  • Encoder: Dracarys
  • Mediainfo: Clic para Mostrar Datos Ver
  • Format                      : Matroska
    Format version              : Version 4
    File size                   : 17.7 GiB
    Duration                    : 1 h 13 min
    Overall bit rate mode       : Variable
    Overall bit rate            : 34.3 Mb/s
    Movie name                  : Oliver y su pandilla (1988) REMUX 1080p Latino - CMHDD
    Encoded date                : UTC 2020-08-08 06:30:54
    Writing application         : mkvmerge v46.0.0 ('No Deeper Escape') 64-bit
    Writing library             : libebml v1.3.10 + libmatroska v1.5.2

    Video
    ID                          : 1
    Format                      : AVC
    Format/Info                 : Advanced Video Codec
    Format profile              : High@L4.1
    Format settings             : CABAC / 4 Ref Frames
    Format settings, CABAC      : Yes
    Format settings, Reference  : 4 frames
    Codec ID                    : V_MPEG4/ISO/AVC
    Duration                    : 1 h 13 min
    Bit rate mode               : Variable
    Bit rate                    : 29.9 Mb/s
    Maximum bit rate            : 32.0 Mb/s
    Width                       : 1 920 pixels
    Height                      : 1 080 pixels
    Display aspect ratio        : 16:9
    Frame rate mode             : Constant
    Frame rate                  : 23.976 (24000/1001) FPS
    Color space                 : YUV
    Chroma subsampling          : 4:2:0
    Bit depth                   : 8 bits
    Scan type                   : Progressive
    Bits/(Pixel*Frame)          : 0.602
    Stream size                 : 15.4 GiB (87%)
    Default                     : Yes
    Forced                      : No

    Audio #1
    ID                          : 2
    Format                      : AC-3
    Format/Info                 : Audio Coding 3
    Commercial name             : Dolby Digital
    Codec ID                    : A_AC3
    Duration                    : 1 h 13 min
    Bit rate mode               : Constant
    Bit rate                    : 640 kb/s
    Channel(s)                  : 6 channels
    Channel layout              : L R C LFE Ls Rs
    Sampling rate               : 48.0 kHz
    Frame rate                  : 31.250 FPS (1536 SPF)
    Compression mode            : Lossy
    Stream size                 : 337 MiB (2%)
    Language                    : Spanish
    Service kind                : Complete Main
    Default                     : Yes
    Forced                      : No

    Audio #2
    ID                          : 3
    Format                      : DTS XLL
    Format/Info                 : Digital Theater Systems
    Commercial name             : DTS-HD Master Audio
    Codec ID                    : A_DTS
    Duration                    : 1 h 13 min
    Bit rate mode               : Variable
    Bit rate                    : 3 825 kb/s
    Channel(s)                  : 6 channels
    Channel layout              : C L R Ls Rs LFE
    Sampling rate               : 48.0 kHz
    Frame rate                  : 93.750 FPS (512 SPF)
    Bit depth                   : 24 bits
    Compression mode            : Lossless
    Stream size                 : 1.97 GiB (11%)
    Language                    : English
    Default                     : No
    Forced                      : No

    Text #1
    ID                          : 4
    Format                      : PGS
    Muxing mode                 : zlib
    Codec ID                    : S_HDMV/PGS
    Codec ID/Info               : Picture based subtitle format used on BDs/HD-DVDs
    Duration                    : 1 h 8 min
    Bit rate                    : 6 791 b/s
    Count of elements           : 326
    Stream size                 : 3.34 MiB (0%)
    Language                    : Spanish
    Default                     : No
    Forced                      : No

    Text #2
    ID                          : 5
    Format                      : PGS
    Muxing mode                 : zlib
    Codec ID                    : S_HDMV/PGS
    Codec ID/Info               : Picture based subtitle format used on BDs/HD-DVDs
    Duration                    : 1 h 8 min
    Bit rate                    : 43.0 kb/s
    Count of elements           : 1658
    Stream size                 : 21.2 MiB (0%)
    Language                    : Spanish
    Default                     : No
    Forced                      : No

    Text #3
    ID                          : 6
    Format                      : UTF-8
    Codec ID                    : S_TEXT/UTF8
    Codec ID/Info               : UTF-8 Plain Text
    Duration                    : 1 h 8 min
    Bit rate                    : 7 b/s
    Count of elements           : 163
    Stream size                 : 3.60 KiB (0%)
    Language                    : Spanish
    Default                     : Yes
    Forced                      : No

    Text #4
    ID                          : 7
    Format                      : UTF-8
    Codec ID                    : S_TEXT/UTF8
    Codec ID/Info               : UTF-8 Plain Text
    Duration                    : 1 h 8 min
    Bit rate                    : 50 b/s
    Count of elements           : 829
    Stream size                 : 25.2 KiB (0%)
    Language                    : Spanish
    Default                     : No
    Forced                      : No

  • Peso: 17.7 GiB

Sinopsis

Un gatito huérfano llamado Oliver se une a Fagin y a su banda de ladronzuelos con Dodger, un maestro moviéndose por la ciudad, y el simpático Chiguagua Tito. Un buen día, el pequeño Oliver deja las calles al ser adoptado por Jenny, una niña rica que se lo lleva a su casa, donde vivirá con todas las comodidades. Pero cuando Jenny es secuestrada por el malvado jefe de Fagin y su terrorífico Doberman, Oliver comprobará el valor de la verdadera amistad al ver cómo toda la banda se pone en marcha para rescatarla. Adaptación animada y muy libre de «Oliver Twist», de Charles Dickens.

Ficha técnica

Video trailer de la película

Enlaces de descarga

Rip de Bluray

Descargar Oliver y su pandilla (1988) REMUX 1080p Latino – CMHDD




Aportes de DPeliculasHDmega la pass es:dpeliculashdmega.org Aportes de CinemaniaHD la pass es:cinemaniahdd.com
Guardado en : Animación , Comedia , Familia

Películas relacionadas

  • Corazón de tinta (2008) Full HD 1080p Latino

    Corazón de tinta (2008) Full HD 1080p Latino

    2008
    Corazón de tinta (2008) Full HD 1080p Latino

    1h 46m 2008

    Descargar Corazón de tinta (2008) Full HD 1080p Latino. Mortimer “Mo” Folchart y su hija de 12 años,...

    Director: Sharon Mansfield

    Género: Aventura

    Actores: Terry Cavanagh

  • Corazón de tinta (2008) REMUX 1080p Latino

    Corazón de tinta (2008) REMUX 1080p Latino

    2008
    Corazón de tinta (2008) REMUX 1080p Latino

    1h 46m 2008

    Descargar Corazón de tinta (2008) REMUX 1080p Latino. Mortimer “Mo” Folchart y su hija de 12 años,...

    Director: Sharon Mansfield

    Género: Aventura

    Actores: Tereza Srbová

  • Hombre de familia (2000) REMUX 1080p Latino

    Hombre de familia (2000) REMUX 1080p Latino

    2000
    Hombre de familia (2000) REMUX 1080p Latino

    2h 1m 2000

    Descargar Hombre de familia (2000) REMUX 1080p Latino. Jack Campbell es un egocéntrico broker de Wall...

    Director: Robert Schroer

    Género: Comedia

    Actores: Wass Stevens

  • Te Amo Brother (2009) REMUX 1080p Latino

    Te Amo Brother (2009) REMUX 1080p Latino

    2009
    Te Amo Brother (2009) REMUX 1080p Latino

    1h 45m 2009

    Descargar Te Amo Brother (2009) REMUX 1080p Latino. Peter Klaven (Paul Rudd) es un joven que vive muy...

    Director: Scott Robertson

    Género: Comedia

    Actores: Vicki Davis

  • Asústame (2020) HD 1080p Latino

    Asústame (2020) HD 1080p Latino

    2020
    Asústame (2020) HD 1080p Latino

    1h 44m 2020

    Descargar Asústame (2020) HD 1080p Latino. Durante un corte de energía, dos extraños cuentan historias...

    Director: Josh Ruben

    Género: Comedia

    Actores: Rebecca Drysdale

descargar Oliver y su pandilla (1988) REMUX 1080p Latino – CMHDD Full 1080p 1080p gratis, Oliver y su pandilla (1988) REMUX 1080p Latino – CMHDD Full 1080p mega 1 link, Oliver y su pandilla (1988) REMUX 1080p Latino – CMHDD Full 1080p pelicula completa, descargar Oliver y su pandilla (1988) REMUX 1080p Latino – CMHDD Full 1080p gratis en mega.

Oliver y su pandilla (1988) REMUX 1080p Latino – CMHDD pelicula full hd, Oliver y su pandilla (1988) REMUX 1080p Latino – CMHDD mega latino, Oliver y su pandilla (1988) REMUX 1080p Latino – CMHDD 4k latino, Oliver y su pandilla (1988) REMUX 1080p Latino – CMHDD pelicula completa, Oliver y su pandilla (1988) REMUX 1080p Latino – CMHDD descargar gratis, descargar Oliver y su pandilla (1988) REMUX 1080p Latino – CMHDD pelicula latino, Oliver y su pandilla (1988) REMUX 1080p Latino – CMHDD 1 link mega, Oliver y su pandilla (1988) REMUX 1080p Latino – CMHDD 1 link google drive, Oliver y su pandilla (1988) REMUX 1080p Latino – CMHDD hd 1080p latino.
Comentarios 0