×

¿Problemas para descargar con Mozilla, EDGE? Deshabilita la opción "Abrir vinculos en una pestaña nueva" tal como lo muestra ésta imagen.

Oliver y su pandilla (1988) HD 1080p Latino – CMHDD

380 vistas

Información de Oliver y su pandilla (1988) HD 1080p Latino – CMHDD

Datos de la película

  • Calidad: 1080p
  • Audio: Español Latino AC3 5.1 BLURAY - Ingles AC3 5.1 BLURAY
  • Subtitulos: Español Latino SRT- FORZADOS SRT
  • Resolución: 1920x1036p
  • Formato: MKV
  • Codec: H.264
  • Encoder: Dracarys
  • Mediainfo: Clic para Mostrar Datos Ver
  • Format                      : Matroska
    Format version              : Version 4
    File size                   : 2.45 GiB
    Duration                    : 1 h 13 min
    Overall bit rate            : 4 774 kb/s
    Movie name                  : Oliver y su pandilla (1988) HD 1080p Latino - CMHDD
    Encoded date                : UTC 2020-08-08 06:33:33
    Writing application         : mkvmerge v46.0.0 ('No Deeper Escape') 64-bit
    Writing library             : libebml v1.3.10 + libmatroska v1.5.2

    Video
    ID                          : 1
    Format                      : AVC
    Format/Info                 : Advanced Video Codec
    Format profile              : High@L4.1
    Format settings             : CABAC / 4 Ref Frames
    Format settings, CABAC      : Yes
    Format settings, Reference  : 4 frames
    Codec ID                    : V_MPEG4/ISO/AVC
    Duration                    : 1 h 13 min
    Bit rate                    : 3 500 kb/s
    Width                       : 1 920 pixels
    Height                      : 1 036 pixels
    Display aspect ratio        : 1.85:1
    Frame rate mode             : Constant
    Frame rate                  : 23.976 (24000/1001) FPS
    Color space                 : YUV
    Chroma subsampling          : 4:2:0
    Bit depth                   : 8 bits
    Scan type                   : Progressive
    Bits/(Pixel*Frame)          : 0.073
    Stream size                 : 1.79 GiB (73%)
    Writing library             : x264 core 157 r2935 545de2f
    Encoding settings           : cabac=1 / ref=4 / deblock=1:0:0 / analyse=0x3:0x113 / me=hex / subme=8 / psy=1 / psy_rd=1.00:0.00 / mixed_ref=1 / me_range=16 / chroma_me=1 / trellis=2 / 8x8dct=1 / cqm=0 / deadzone=21,11 / fast_pskip=1 / chroma_qp_offset=-2 / threads=24 / lookahead_threads=4 / sliced_threads=0 / nr=0 / decimate=1 / interlaced=0 / bluray_compat=0 / constrained_intra=0 / bframes=3 / b_pyramid=2 / b_adapt=1 / b_bias=0 / direct=3 / weightb=1 / open_gop=0 / weightp=2 / keyint=240 / keyint_min=24 / scenecut=40 / intra_refresh=0 / rc_lookahead=50 / rc=abr / mbtree=1 / bitrate=3500 / ratetol=1.0 / qcomp=0.60 / qpmin=0 / qpmax=69 / qpstep=4 / vbv_maxrate=62500 / vbv_bufsize=78125 / nal_hrd=none / filler=0 / ip_ratio=1.40 / aq=1:1.00
    Default                     : Yes
    Forced                      : No
    Color range                 : Limited
    Color primaries             : BT.709
    Transfer characteristics    : BT.709
    Matrix coefficients         : BT.709

    Audio #1
    ID                          : 2
    Format                      : AC-3
    Format/Info                 : Audio Coding 3
    Commercial name             : Dolby Digital
    Codec ID                    : A_AC3
    Duration                    : 1 h 13 min
    Bit rate mode               : Constant
    Bit rate                    : 640 kb/s
    Channel(s)                  : 6 channels
    Channel layout              : L R C LFE Ls Rs
    Sampling rate               : 48.0 kHz
    Frame rate                  : 31.250 FPS (1536 SPF)
    Compression mode            : Lossy
    Stream size                 : 337 MiB (13%)
    Language                    : Spanish
    Service kind                : Complete Main
    Default                     : Yes
    Forced                      : No

    Audio #2
    ID                          : 3
    Format                      : AC-3
    Format/Info                 : Audio Coding 3
    Commercial name             : Dolby Digital
    Codec ID                    : A_AC3
    Duration                    : 1 h 13 min
    Bit rate mode               : Constant
    Bit rate                    : 640 kb/s
    Channel(s)                  : 6 channels
    Channel layout              : L R C LFE Ls Rs
    Sampling rate               : 48.0 kHz
    Frame rate                  : 31.250 FPS (1536 SPF)
    Compression mode            : Lossy
    Delay relative to video     : -5 ms
    Stream size                 : 337 MiB (13%)
    Language                    : English
    Service kind                : Complete Main
    Default                     : No
    Forced                      : No

    Text #1
    ID                          : 4
    Format                      : UTF-8
    Codec ID                    : S_TEXT/UTF8
    Codec ID/Info               : UTF-8 Plain Text
    Duration                    : 1 h 8 min
    Bit rate                    : 7 b/s
    Count of elements           : 163
    Stream size                 : 3.60 KiB (0%)
    Language                    : Spanish
    Default                     : Yes
    Forced                      : No

    Text #2
    ID                          : 5
    Format                      : UTF-8
    Codec ID                    : S_TEXT/UTF8
    Codec ID/Info               : UTF-8 Plain Text
    Duration                    : 1 h 8 min
    Bit rate                    : 50 b/s
    Count of elements           : 829
    Stream size                 : 25.2 KiB (0%)
    Language                    : Spanish
    Default                     : No
    Forced                      : No

    Menu
    00:00:00.000                : :Chapter 1
    00:04:11.543                : :Chapter 2
    00:06:59.502                : :Chapter 3
    00:09:21.186                : :Chapter 4
    00:12:51.437                : :Chapter 5
    00:15:10.076                : :Chapter 6
    00:18:48.169                : :Chapter 7
    00:24:36.016                : :Chapter 8
    00:27:50.335                : :Chapter 9
    00:30:30.037                : :Chapter 10
    00:32:31.074                : :Chapter 11
    00:33:03.106                : :Chapter 12
    00:36:01.618                : :Chapter 13
    00:37:58.902                : :Chapter 14
    00:38:54.332                : :Chapter 15
    00:41:50.425                : :Chapter 16
    00:47:55.873                : :Chapter 17
    00:53:25.327                : :Chapter 18
    00:56:34.933                : :Chapter 19
    00:57:20.270                : :Chapter 20
    01:01:34.357                : :Chapter 21
    01:05:07.821                : :Chapter 22
    01:06:27.066                : :Chapter 23
    01:09:24.035                : :Chapter 24

  • Peso: 2.45 GiB

Sinopsis

Un gatito huérfano llamado Oliver se une a Fagin y a su banda de ladronzuelos con Dodger, un maestro moviéndose por la ciudad, y el simpático Chiguagua Tito. Un buen día, el pequeño Oliver deja las calles al ser adoptado por Jenny, una niña rica que se lo lleva a su casa, donde vivirá con todas las comodidades. Pero cuando Jenny es secuestrada por el malvado jefe de Fagin y su terrorífico Doberman, Oliver comprobará el valor de la verdadera amistad al ver cómo toda la banda se pone en marcha para rescatarla. Adaptación animada y muy libre de «Oliver Twist», de Charles Dickens.

Ficha técnica

Video trailer de la película

Enlaces de descarga

Rip de Bluray

Descargar Oliver y su pandilla (1988) HD 1080p Latino – CMHDD




Aportes de DPeliculasHDmega la pass es:dpeliculashdmega.org Aportes de CinemaniaHD la pass es:cinemaniahdd.com
Guardado en : Animación , Comedia , Familia , HD 1080p

Películas relacionadas

  • Corazón de tinta (2008) Full HD 1080p Latino

    Corazón de tinta (2008) Full HD 1080p Latino

    2008
    Corazón de tinta (2008) Full HD 1080p Latino

    1h 46m 2008

    Descargar Corazón de tinta (2008) Full HD 1080p Latino. Mortimer “Mo” Folchart y su hija de 12 años,...

    Director: Sharon Mansfield

    Género: Aventura

    Actores: Terry Cavanagh

  • Corazón de tinta (2008) REMUX 1080p Latino

    Corazón de tinta (2008) REMUX 1080p Latino

    2008
    Corazón de tinta (2008) REMUX 1080p Latino

    1h 46m 2008

    Descargar Corazón de tinta (2008) REMUX 1080p Latino. Mortimer “Mo” Folchart y su hija de 12 años,...

    Director: Sharon Mansfield

    Género: Aventura

    Actores: Tereza Srbová

  • Juego de espías (2001) 1080p Latino

    Juego de espías (2001) 1080p Latino

    2001
    Juego de espías (2001) 1080p Latino

    2h 6m 2001

    Descargar Juego de espías (2001) 1080p Latino. Corre el año 1991, y al veterano agente de la CIA Nathan...

    Director: Tony Scott

    Género: Acción

    Actores: Zsolt Zágoni

  • Hombre de familia (2000) REMUX 1080p Latino

    Hombre de familia (2000) REMUX 1080p Latino

    2000
    Hombre de familia (2000) REMUX 1080p Latino

    2h 1m 2000

    Descargar Hombre de familia (2000) REMUX 1080p Latino. Jack Campbell es un egocéntrico broker de Wall...

    Director: Robert Schroer

    Género: Comedia

    Actores: Wass Stevens

descargar Oliver y su pandilla (1988) HD 1080p Latino – CMHDD 1080p 1080p gratis, Oliver y su pandilla (1988) HD 1080p Latino – CMHDD 1080p mega 1 link, Oliver y su pandilla (1988) HD 1080p Latino – CMHDD 1080p pelicula completa, descargar Oliver y su pandilla (1988) HD 1080p Latino – CMHDD 1080p gratis en mega.

Oliver y su pandilla (1988) HD 1080p Latino – CMHDD pelicula full hd, Oliver y su pandilla (1988) HD 1080p Latino – CMHDD mega latino, Oliver y su pandilla (1988) HD 1080p Latino – CMHDD 4k latino, Oliver y su pandilla (1988) HD 1080p Latino – CMHDD pelicula completa, Oliver y su pandilla (1988) HD 1080p Latino – CMHDD descargar gratis, descargar Oliver y su pandilla (1988) HD 1080p Latino – CMHDD pelicula latino, Oliver y su pandilla (1988) HD 1080p Latino – CMHDD 1 link mega, Oliver y su pandilla (1988) HD 1080p Latino – CMHDD 1 link google drive, Oliver y su pandilla (1988) HD 1080p Latino – CMHDD hd 1080p latino.
Comentarios 0