×

¿Problemas para descargar con Mozilla, EDGE? Deshabilita la opción "Abrir vinculos en una pestaña nueva" tal como lo muestra ésta imagen.

Oliver! (1968) REMUX 4K HDR Latino – CMHDD

87 vistas

Información de Oliver! (1968) REMUX 4K HDR Latino – CMHDD

Datos de la película

  • Calidad: 4K HDR
  • Audio: Español Latino AC3 5.1 BLURAY - Ingles DTS 5.1 BLURAY
  • Subtitulos: Español Latino PGS
  • Resolución: 3840x2160p
  • Formato: MKV
  • Codec: H.264
  • Encoder: Dracarys
  • Mediainfo: Clic para Mostrar Datos Ver
  • Format                      : Matroska
    Format version              : Version 4
    File size                   : 65.1 GiB
    Duration                    : 2 h 33 min
    Overall bit rate mode       : Variable
    Overall bit rate            : 60.7 Mb/s
    Movie name                  : Oliver! (1968) REMUX 4K HDR Latino - CMHDD
    Encoded date                : UTC 2021-09-27 00:28:03
    Writing application         : mkvmerge v17.0.0 ('Be Ur Friend') 64-bit
    Writing library             : libebml v1.3.5 + libmatroska v1.4.8

    Video
    ID                          : 1
    Format                      : HEVC
    Format/Info                 : High Efficiency Video Coding
    Format profile              : Main 10@L5.1@High
    HDR format                  : SMPTE ST 2086, HDR10 compatible
    Codec ID                    : V_MPEGH/ISO/HEVC
    Duration                    : 2 h 33 min
    Bit rate                    : 53.5 Mb/s
    Width                       : 3 840 pixels
    Height                      : 2 160 pixels
    Display aspect ratio        : 16:9
    Frame rate mode             : Constant
    Frame rate                  : 23.976 (24000/1001) FPS
    Color space                 : YUV
    Chroma subsampling          : 4:2:0 (Type 2)
    Bit depth                   : 10 bits
    Bits/(Pixel*Frame)          : 0.269
    Stream size                 : 57.4 GiB (88%)
    Default                     : Yes
    Forced                      : No
    Color range                 : Limited
    Color primaries             : BT.2020
    Transfer characteristics    : PQ
    Matrix coefficients         : BT.2020 non-constant
    Mastering display color pri : Display P3
    Mastering display luminance : min: 0.0050 cd/m2, max: 4000 cd/m2
    Maximum Content Light Level : 6297 cd/m2
    Maximum Frame-Average Light : 69 cd/m2

    Audio #1
    ID                          : 2
    Format                      : MLP FBA 16-ch
    Format/Info                 : Meridian Lossless Packing FBA with 16-channel presentation
    Commercial name             : Dolby TrueHD with Dolby Atmos
    Codec ID                    : A_TRUEHD
    Duration                    : 2 h 33 min
    Bit rate mode               : Variable
    Bit rate                    : 4 207 kb/s
    Maximum bit rate            : 5 829 kb/s
    Channel(s)                  : 8 channels
    Channel layout              : L R C LFE Ls Rs Lb Rb
    Sampling rate               : 48.0 kHz
    Frame rate                  : 1 200.000 FPS (40 SPF)
    Compression mode            : Lossless
    Stream size                 : 4.51 GiB (7%)
    Language                    : English
    Default                     : No
    Forced                      : No
    Number of dynamic objects   : 11
    Bed channel count           : 1 channel
    Bed channel configuration   : LFE

    Audio #2
    ID                          : 3
    Format                      : AC-3
    Format/Info                 : Audio Coding 3
    Commercial name             : Dolby Digital
    Codec ID                    : A_AC3
    Duration                    : 2 h 33 min
    Bit rate mode               : Constant
    Bit rate                    : 640 kb/s
    Channel(s)                  : 6 channels
    Channel layout              : L R C LFE Ls Rs
    Sampling rate               : 48.0 kHz
    Frame rate                  : 31.250 FPS (1536 SPF)
    Compression mode            : Lossy
    Stream size                 : 703 MiB (1%)
    Language                    : English
    Service kind                : Complete Main
    Default                     : No
    Forced                      : No

    Audio #3
    ID                          : 4
    Format                      : DTS XLL
    Format/Info                 : Digital Theater Systems
    Commercial name             : DTS-HD Master Audio
    Codec ID                    : A_DTS
    Duration                    : 2 h 33 min
    Bit rate mode               : Variable
    Bit rate                    : 2 096 kb/s
    Channel(s)                  : 6 channels
    Channel layout              : C L R Ls Rs LFE
    Sampling rate               : 48.0 kHz
    Frame rate                  : 93.750 FPS (512 SPF)
    Bit depth                   : 16 bits
    Compression mode            : Lossless
    Stream size                 : 2.25 GiB (3%)
    Language                    : English
    Default                     : No
    Forced                      : No

    Audio #4
    ID                          : 5
    Format                      : AC-3
    Format/Info                 : Audio Coding 3
    Commercial name             : Dolby Digital
    Format settings             : Dolby Surround
    Codec ID                    : A_AC3
    Duration                    : 2 h 33 min
    Bit rate mode               : Constant
    Bit rate                    : 192 kb/s
    Channel(s)                  : 2 channels
    Channel layout              : L R
    Sampling rate               : 48.0 kHz
    Frame rate                  : 31.250 FPS (1536 SPF)
    Compression mode            : Lossy
    Delay relative to video     : 24 ms
    Stream size                 : 211 MiB (0%)
    Language                    : Spanish
    Service kind                : Complete Main
    Default                     : Yes
    Forced                      : No

    Text
    ID                          : 6
    Format                      : PGS
    Muxing mode                 : zlib
    Codec ID                    : S_HDMV/PGS
    Codec ID/Info               : Picture based subtitle format used on BDs/HD-DVDs
    Duration                    : 2 h 25 min
    Bit rate                    : 25.2 kb/s
    Count of elements           : 2742
    Stream size                 : 26.2 MiB (0%)
    Language                    : Spanish
    Default                     : No
    Forced                      : No

    Menu
    00:00:00.000                : en:Chapter 1
    00:15:18.375                : en:Chapter 2
    00:24:35.724                : en:Chapter 3
    00:30:43.591                : en:Chapter 4
    00:40:10.282                : en:Chapter 5
    00:52:32.899                : en:Chapter 6
    01:06:40.037                : en:Chapter 7
    01:16:59.031                : en:Chapter 8
    01:26:13.793                : en:Chapter 9
    01:29:30.114                : en:Chapter 10
    01:41:50.104                : en:Chapter 11
    01:57:06.352                : en:Chapter 12
    02:05:56.131                : en:Chapter 13
    02:12:48.085                : en:Chapter 14
    02:18:53.408                : en:Chapter 15
    02:25:10.201                : en:Chapter 16

  • Peso: 65.1 GiB

Sinopsis

En el siglo XIX, Oliver Twist (Mark Lester), un pobre niño inglés, escapa de un orfanato y llega a Londres en busca de fortuna. Allí es reclutado por un granuja llamado Fagin (Ron Moody), jefe de una banda de jóvenes ladronzuelos que roban a los transeúntes. Adaptación en formato musical de la famosa obra de Dickens.

Ficha técnica

Video trailer de la película

Enlaces de descarga

Rip de Bluray

Descargar Oliver! (1968) REMUX 4K HDR Latino – CMHDD


Aportes de DPeliculasHDmega la pass es:dpeliculashdmega.org Aportes de CinemaniaHD la pass es:cinemaniahdd.com
Guardado en : Drama , Familia , Música

Películas relacionadas

descargar Oliver! (1968) REMUX 4K HDR Latino – CMHDD 4K HDR 1080p gratis, Oliver! (1968) REMUX 4K HDR Latino – CMHDD 4K HDR mega 1 link, Oliver! (1968) REMUX 4K HDR Latino – CMHDD 4K HDR pelicula completa, descargar Oliver! (1968) REMUX 4K HDR Latino – CMHDD 4K HDR gratis en mega.

Oliver! (1968) REMUX 4K HDR Latino – CMHDD pelicula full hd, Oliver! (1968) REMUX 4K HDR Latino – CMHDD mega latino, Oliver! (1968) REMUX 4K HDR Latino – CMHDD 4k latino, Oliver! (1968) REMUX 4K HDR Latino – CMHDD pelicula completa, Oliver! (1968) REMUX 4K HDR Latino – CMHDD descargar gratis, descargar Oliver! (1968) REMUX 4K HDR Latino – CMHDD pelicula latino, Oliver! (1968) REMUX 4K HDR Latino – CMHDD 1 link mega, Oliver! (1968) REMUX 4K HDR Latino – CMHDD 1 link google drive, Oliver! (1968) REMUX 4K HDR Latino – CMHDD hd 1080p latino.