×

¿Problemas para descargar con Mozilla, EDGE? Deshabilita la opción "Abrir vinculos en una pestaña nueva" tal como lo muestra ésta imagen.

Oldboy: Dias de Venganza (2013) REMUX 1080p Latino

347 vistas

Información de Oldboy: Dias de Venganza (2013) REMUX 1080p Latino

Datos de la película

  • Calidad: Full 1080p
  • Audio: Español Latino AC3 5.1 DVD - Ingles DTS 5.1 BLURAY
  • Subtitulos: Español Latino SRT- FORZADOS SRT
  • Resolución: 1920x1080p
  • Formato: MKV
  • Codec: H.264
  • Encoder: CinefiloCool
  • Mediainfo: Clic para Mostrar Datos Ver
  • Oldboy (2013) REMUX 1080p Latino-CMHDD.mkv
    Format                      : Matroska
    Format version              : Version 4
    File size                   : 23.0 GiB
    Duration                    : 1 h 43 min
    Overall bit rate mode       : Variable
    Overall bit rate            : 31.7 Mb/s
    Movie name                  : Oldboy (2013) CinemaniaHDD.Net
    Encoded date                : UTC 2022-04-25 02:12:58
    Writing application         : mkvmerge v56.1.0 ('My Friend') 64-bit
    Writing library             : libebml v1.4.2 + libmatroska v1.6.4
    Attachments                 : CINEMANIAHD.png

    Video
    ID                          : 1
    ID in the original source m : 4113 (0x1011)
    Format                      : AVC
    Format/Info                 : Advanced Video Codec
    Format profile              : High@L4.1
    Format settings             : CABAC / 2 Ref Frames
    Format settings, CABAC      : Yes
    Format settings, Reference  : 2 frames
    Format settings, GOP        : M=1, N=10
    Codec ID                    : V_MPEG4/ISO/AVC
    Duration                    : 1 h 43 min
    Bit rate mode               : Variable
    Bit rate                    : 27.9 Mb/s
    Width                       : 1 920 pixels
    Height                      : 1 080 pixels
    Display aspect ratio        : 16:9
    Frame rate mode             : Constant
    Frame rate                  : 23.976 (24000/1001) FPS
    Color space                 : YUV
    Chroma subsampling          : 4:2:0
    Bit depth                   : 8 bits
    Scan type                   : Progressive
    Bits/(Pixel*Frame)          : 0.562
    Stream size                 : 20.2 GiB (88%)
    Title                       : REMUX HD1080p [CinemaniaHDD]
    Default                     : Yes
    Forced                      : Yes
    Original source medium      : Blu-ray

    Audio #1
    ID                          : 2
    Format                      : AC-3
    Format/Info                 : Audio Coding 3
    Commercial name             : Dolby Digital
    Codec ID                    : A_AC3
    Duration                    : 1 h 43 min
    Bit rate mode               : Constant
    Bit rate                    : 384 kb/s
    Channel(s)                  : 6 channels
    Channel layout              : L R C LFE Ls Rs
    Sampling rate               : 48.0 kHz
    Frame rate                  : 31.250 FPS (1536 SPF)
    Compression mode            : Lossy
    Delay relative to video     : 400 ms
    Stream size                 : 285 MiB (1%)
    Title                       : Español Latino [CinemaniaHDD]
    Language                    : Spanish
    Service kind                : Complete Main
    Default                     : Yes
    Forced                      : Yes

    Audio #2
    ID                          : 3
    ID in the original source m : 4352 (0x1100)
    Format                      : DTS XLL
    Format/Info                 : Digital Theater Systems
    Commercial name             : DTS-HD Master Audio
    Codec ID                    : A_DTS
    Duration                    : 1 h 43 min
    Bit rate mode               : Variable
    Bit rate                    : 3 397 kb/s
    Channel(s)                  : 6 channels
    Channel layout              : C L R Ls Rs LFE
    Sampling rate               : 48.0 kHz
    Frame rate                  : 93.750 FPS (512 SPF)
    Bit depth                   : 24 bits
    Compression mode            : Lossless
    Stream size                 : 2.46 GiB (11%)
    Title                       : Ingles [CinemaniaHDD]
    Language                    : English
    Default                     : No
    Forced                      : No
    Original source medium      : Blu-ray

    Text #1
    ID                          : 4
    Format                      : UTF-8
    Codec ID                    : S_TEXT/UTF8
    Codec ID/Info               : UTF-8 Plain Text
    Duration                    : 1 h 13 min
    Bit rate                    : 0 b/s
    Count of elements           : 10
    Stream size                 : 446 Bytes (0%)
    Title                       : Forzados-SRT [CinemaniaHDD]
    Language                    : Spanish
    Default                     : Yes
    Forced                      : Yes

    Text #2
    ID                          : 5
    Format                      : UTF-8
    Codec ID                    : S_TEXT/UTF8
    Codec ID/Info               : UTF-8 Plain Text
    Duration                    : 1 h 38 min
    Bit rate                    : 54 b/s
    Count of elements           : 1113
    Stream size                 : 39.2 KiB (0%)
    Title                       : Español-SRT [CinemaniaHDD]
    Language                    : Spanish
    Default                     : No
    Forced                      : No

    Text #3
    ID                          : 6
    ID in the original source m : 4609 (0x1201)
    Format                      : PGS
    Muxing mode                 : zlib
    Codec ID                    : S_HDMV/PGS
    Codec ID/Info               : Picture based subtitle format used on BDs/HD-DVDs
    Duration                    : 1 h 37 min
    Bit rate                    : 26.7 kb/s
    Count of elements           : 2098
    Stream size                 : 18.6 MiB (0%)
    Title                       : Ingles [CinemaniaHDD]
    Language                    : English
    Default                     : No
    Forced                      : No
    Original source medium      : Blu-ray

    Menu
    00:00:00.000                : Chapter 01
    00:04:45.118                : Chapter 02
    00:10:13.988                : Chapter 03
    00:16:15.599                : Chapter 04
    00:22:18.712                : Chapter 05
    00:30:30.161                : Chapter 06
    00:34:31.110                : Chapter 07
    00:43:42.369                : Chapter 08
    00:52:15.423                : Chapter 09
    00:56:28.676                : Chapter 10
    01:04:09.512                : Chapter 11
    01:10:00.487                : Chapter 12
    01:17:15.047                : Chapter 13
    01:22:37.410                : Chapter 14
    01:29:46.881                : Chapter 15
    01:37:15.579                : Chapter 16

  • Peso: 23.0 GiB

Sinopsis

Descargar Oldboy: Dias de Venganza (2013) REMUX 1080p Latino. A un ejecutivo publicitario (Josh Brolin) lo secuestran y lo mantienen aislado durante veinte años. Cuando por fin lo liberan, sin darle ninguna explicación, se lanza a una búsqueda obsesiva para descubrir quién orquestó un castigo tan cruel y extraño, pero lo que acaba descubriendo es que sigue siendo víctima de una conspiración.

Disponible Solo Para VIP!!!

Ficha técnica

Video trailer de la película

Enlaces de descarga

Rip de Bluray

Descargar Oldboy: Dias de Venganza (2013) REMUX 1080p Latino


Aportes de DPeliculasHDmega la pass es:dpeliculashdmega.org Aportes de CinemaniaHD la pass es:cinemaniahdd.com
Guardado en : Acción , Drama , Misterio , Remux , Suspenso

Películas relacionadas

descargar Oldboy: Dias de Venganza (2013) REMUX 1080p Latino Full 1080p 1080p gratis, Oldboy: Dias de Venganza (2013) REMUX 1080p Latino Full 1080p mega 1 link, Oldboy: Dias de Venganza (2013) REMUX 1080p Latino Full 1080p pelicula completa, descargar Oldboy: Dias de Venganza (2013) REMUX 1080p Latino Full 1080p gratis en mega.

Oldboy: Dias de Venganza (2013) REMUX 1080p Latino pelicula full hd, Oldboy: Dias de Venganza (2013) REMUX 1080p Latino mega latino, Oldboy: Dias de Venganza (2013) REMUX 1080p Latino 4k latino, Oldboy: Dias de Venganza (2013) REMUX 1080p Latino pelicula completa, Oldboy: Dias de Venganza (2013) REMUX 1080p Latino descargar gratis, descargar Oldboy: Dias de Venganza (2013) REMUX 1080p Latino pelicula latino, Oldboy: Dias de Venganza (2013) REMUX 1080p Latino 1 link mega, Oldboy: Dias de Venganza (2013) REMUX 1080p Latino 1 link google drive, Oldboy: Dias de Venganza (2013) REMUX 1080p Latino hd 1080p latino.
Comentarios 0