Old Dogs (2009) Full 1080p Latino

1.020 vistas
1 estrella2 estrellas3 estrellas4 estrellas5 estrellas (3 votos, promedio: 2,67 de 5)
Cargando…

Información de Old Dogs (2009) Full 1080p Latino

Datos de la película

  • Calidad: Full 1080p
  • Audio: Español Latino AC3 5.1 BLURAY - Ingles DTS 5.1 BLURAY
  • Subtitulos: Español Latino PGS - Ingles PGS
  • Resolución: 1920x1080p
  • Formato: MKV
  • Codec: H.264
  • Encoder: Dracarys
  • Mediainfo: Clic para Mostrar Datos Ver
  • Format                                   : Matroska
    Format version                           : Version 4 / Version 2
    File size                                : 10.1 GiB
    Duration                                 : 1 h 28 min
    Overall bit rate                         : 16.3 Mb/s
    Movie name                               : CinemaniaHDD.net
    Encoded date                             : UTC 2018-06-26 02:44:09 / UTC 2018-04-02T13:43:51Z
    Writing application                      : mkvmerge v15.0.0 ('Duel with the Devil') 64-bit
    Writing library                          : libebml v1.3.5 + libmatroska v1.4.5 / Lavf57.7.2

    Video
    ID                                       : 1
    Format                                   : AVC
    Format/Info                              : Advanced Video Codec
    Format profile                           : High@L4.1
    Format settings                          : CABAC / 4 Ref Frames
    Format settings, CABAC                   : Yes
    Format settings, RefFrames               : 4 frames
    Codec ID                                 : V_MPEG4/ISO/AVC
    Duration                                 : 1 h 28 min
    Bit rate                                 : 14.1 Mb/s
    Width                                    : 1 920 pixels
    Height                                   : 1 080 pixels
    Display aspect ratio                     : 16:9
    Frame rate mode                          : Constant
    Frame rate                               : 23.976 (24000/1001) FPS
    Color space                              : YUV
    Chroma subsampling                       : 4:2:0
    Bit depth                                : 8 bits
    Scan type                                : Progressive
    Bits/(Pixel*Frame)                       : 0.283
    Stream size                              : 8.66 GiB (86%)
    Title                                    : Old Dogs (2009) Full 1080p Latino
    Writing library                          : x264 core 148 r2708 86b7198
    Encoding settings                        : cabac=1 / ref=4 / deblock=1:0:0 / analyse=0x3:0x133 / me=esa / subme=9 / psy=1 / psy_rd=1.00:0.00 / mixed_ref=1 / me_range=16 / chroma_me=1 / trellis=2 / 8x8dct=1 / cqm=0 / deadzone=21,11 / fast_pskip=1 / chroma_qp_offset=-2 / threads=34 / lookahead_threads=2 / sliced_threads=0 / nr=0 / decimate=1 / interlaced=0 / bluray_compat=0 / constrained_intra=0 / bframes=3 / b_pyramid=2 / b_adapt=2 / b_bias=0 / direct=3 / weightb=1 / open_gop=0 / weightp=2 / keyint=240 / keyint_min=24 / scenecut=40 / intra_refresh=0 / rc_lookahead=60 / rc=crf / mbtree=1 / crf=20.0 / qcomp=0.60 / qpmin=0 / qpmax=69 / qpstep=4 / vbv_maxrate=62500 / vbv_bufsize=78125 / crf_max=0.0 / nal_hrd=none / filler=0 / ip_ratio=1.40 / aq=1:1.00
    Language                                 : English
    Default                                  : Yes
    Forced                                   : No
    Color range                              : Limited
    Color primaries                          : BT.709
    Transfer characteristics                 : BT.709
    Matrix coefficients                      : BT.709
    Statistics Tags Issue                    : mkvmerge v15.0.0 ('Duel with the Devil') 64-bit 2018-06-26 02:44:09 / mkvmerge v15.0.0 ('Duel with the Devil') 64-bit 2018-06-26 02:44:09 / UTC 2018-04-02T13:43:51Z
    FromStats_BitRate                        : 14335289
    FromStats_Duration                       : 01:28:10.327000000
    FromStats_FrameCount                     : 126841
    FromStats_StreamSize                     : 9479796148

    Audio #1
    ID                                       : 2
    Format                                   : AC-3
    Format/Info                              : Audio Coding 3
    Format settings, Endianness              : Big
    Codec ID                                 : A_AC3
    Duration                                 : 1 h 28 min
    Bit rate mode                            : Constant
    Bit rate                                 : 448 kb/s
    Channel(s)                               : 6 channels
    Channel positions                        : Front: L C R, Side: L R, LFE
    Sampling rate                            : 48.0 kHz
    Frame rate                               : 31.250 FPS (1536 SPF)
    Bit depth                                : 16 bits
    Compression mode                         : Lossy
    Stream size                              : 283 MiB (3%)
    Language                                 : Spanish
    Service kind                             : Complete Main
    Default                                  : Yes
    Forced                                   : No
    Statistics Tags Issue                    : mkvmerge v15.0.0 ('Duel with the Devil') 64-bit 2018-06-26 02:44:09 / mkvmerge v15.0.0 ('Duel with the Devil') 64-bit 2018-06-26 02:44:09 / UTC 2018-04-02T13:43:51Z
    FromStats_BitRate                        : 448000
    FromStats_Duration                       : 01:28:10.336000000
    FromStats_FrameCount                     : 165323
    FromStats_StreamSize                     : 296258816

    Audio #2
    ID                                       : 3
    Format                                   : DTS
    Format/Info                              : Digital Theater Systems
    Mode                                     : 16
    Format settings, Endianness              : Big
    Codec ID                                 : A_DTS
    Duration                                 : 1 h 28 min
    Bit rate mode                            : Constant
    Bit rate                                 : 1 509 kb/s
    Channel(s)                               : 6 channels
    Channel positions                        : Front: L C R, Side: L R, LFE
    Sampling rate                            : 48.0 kHz
    Frame rate                               : 93.750 FPS (512 SPF)
    Bit depth                                : 24 bits
    Compression mode                         : Lossy
    Stream size                              : 952 MiB (9%)
    Language                                 : English
    Default                                  : No
    Forced                                   : No
    Statistics Tags Issue                    : mkvmerge v15.0.0 ('Duel with the Devil') 64-bit 2018-06-26 02:44:09 / mkvmerge v15.0.0 ('Duel with the Devil') 64-bit 2018-06-26 02:44:09 / UTC 2018-04-02T13:43:51Z
    FromStats_BitRate                        : 1508999
    FromStats_Duration                       : 01:28:10.315000000
    FromStats_FrameCount                     : 495967
    FromStats_StreamSize                     : 997885604

    Text #1
    ID                                       : 4
    Format                                   : PGS
    Muxing mode                              : zlib
    Codec ID                                 : S_HDMV/PGS
    Codec ID/Info                            : Picture based subtitle format used on BDs/HD-DVDs
    Language                                 : English
    Default                                  : No
    Forced                                   : No
    Statistics Tags Issue                    : mkvmerge v15.0.0 ('Duel with the Devil') 64-bit 2018-06-26 02:44:09 / mkvmerge v15.0.0 ('Duel with the Devil') 64-bit 2018-06-26 02:44:09 / UTC 2018-04-02T13:43:51Z
    FromStats_BitRate                        : 44577
    FromStats_Duration                       : 01:22:31.780000000
    FromStats_FrameCount                     : 2642
    FromStats_StreamSize                     : 27592031

    Text #2
    ID                                       : 5
    Format                                   : PGS
    Muxing mode                              : zlib
    Codec ID                                 : S_HDMV/PGS
    Codec ID/Info                            : Picture based subtitle format used on BDs/HD-DVDs
    Language                                 : Spanish
    Default                                  : No
    Forced                                   : No
    Statistics Tags Issue                    : mkvmerge v15.0.0 ('Duel with the Devil') 64-bit 2018-06-26 02:44:09 / mkvmerge v15.0.0 ('Duel with the Devil') 64-bit 2018-06-26 02:44:09 / UTC 2018-04-02T13:43:51Z
    FromStats_BitRate                        : 66062
    FromStats_Duration                       : 01:24:16.890000000
    FromStats_FrameCount                     : 2562
    FromStats_StreamSize                     : 41759032

    Menu
    00:00:00.000                             : :Chapter 1
    00:03:25.997                             : :Chapter 2
    00:08:41.438                             : :Chapter 3
    00:12:38.007                             : :Chapter 4
    00:18:50.755                             : :Chapter 5
    00:23:48.260                             : :Chapter 6
    00:25:38.537                             : :Chapter 7
    00:31:09.117                             : :Chapter 8
    00:33:35.472                             : :Chapter 9
    00:37:25.368                             : :Chapter 10
    00:39:45.466                             : :Chapter 11
    00:44:01.264                             : :Chapter 12
    00:50:10.007                             : :Chapter 13
    00:51:54.194                             : :Chapter 14
    00:56:31.805                             : :Chapter 15
    01:02:20.153                             : :Chapter 16
    01:07:29.128                             : :Chapter 17
    01:13:36.913                             : :Chapter 18
    01:16:36.717                             : :Chapter 19
    01:22:51.967                             : :Chapter 20

  • Peso: 10.1 GiB

Sinopsis

Dan (Robin Williams) es un padre divorciado que tiene que hacerse cargo de sus gemelos de siete años y que intentará salir airoso de la prueba gracias a la ayuda de Charlie (John Travolta), un amigo soltero. Al mismo tiempo, la empresa en la que ambos trabajan tiene que firmar un importante acuerdo con una poderosa empresa japonesa. Menos mal que también contarán con la inestimable ayuda de Jimmy Lunchbox (Bernie Mac), un amigo suyo que conoce todos los trucos para entretener a los niños.

Ficha técnica

Video trailer de la película

Enlaces de descarga

Rip de Bluray

Descargar Old Dogs (2009) Full 1080p Latino




Aportes de DPeliculasHDmega la pass es:dpeliculashdmega.org Aportes de CinemaniaHD la pass es:cinemaniahdd.com

Películas relacionadas

  • Ni en tus sueños (2010) Full 1080p Latino

    2010
    Ni en tus sueños (2010) Full 1080p Latino

    0.0 1h 44m 2010

    Descargar Ni en tus sueños (2010) Full 1080p Latino, Mega, Google Drive. Kirk (Jay Baruchel, "Tropic...

    Director: Richard L. Fox

    Género: Comedia

    Actores: Yan Xi

  • Ni en tus sueños (2010) 1080p Latino

    2010
    Ni en tus sueños (2010) 1080p Latino

    0.0 1h 44m 2010

    Descargar Ni en tus sueños (2010) 1080p Latino, Mega, Google Drive. Kirk (Jay Baruchel, "Tropic Thunder")...

    Director: Richard L. Fox

    Género: Comedia

    Actores: Yan Xi

  • La Chica de La Capa Roja (2011) Full 1080p Latino

    2011
    La Chica de La Capa Roja (2011) Full 1080p Latino

    4.7 1h 40m 2011

    Descargar La Chica de La Capa Roja (2011) Full 1080p Latino, Mega, Google Drive. La joven Valerie se...

    Director: Kimi Webber

    Género: Fantasía

    Actores: Virginia Madsen

  • Soy el número cuatro (2011) Full 1080p Latino

    2011
    Soy el número cuatro (2011) Full 1080p Latino

    0.0 1h 42m 2011

    Descargar Soy el número cuatro (2011) Full 1080p Latino, Mega, Google Drive. Aunque tenga la apariencia...

    Director: D.J. Caruso

    Género: Acción

    Actores: Zoe Simek

Comentarios 0