×

¿Problemas para descargar con Mozilla, EDGE? Deshabilita la opción "Abrir vinculos en una pestaña nueva" tal como lo muestra ésta imagen.

Old Boys (2018) WEB-DL 1080p Latino

783 vistas

Información de Old Boys (2018) WEB-DL 1080p Latino

Datos de la película

  • Calidad:
  • Audio: Español Latino AC3 2.0 WEB-DL - Ingles AC3 5.1 WEB-DL
  • Subtitulos: Español Latino SRT- FORZADOS SRT
  • Resolución: 1912x1032
  • Formato: MKV
  • Codec: H.264
  • Encoder: cinemaniahdd
  • Mediainfo: Clic para Mostrar Datos Ver
  • Old Boys (2018) WEB-DL 1080p Latino.mkv
    Format                      : Matroska
    Format version              : Version 4
    File size                   : 3.90 GiB
    Duration                    : 1 h 35 min
    Overall bit rate            : 5 883 kb/s
    Movie name                  : Old Boys (2018) - CinemaniaHDD.Net
    Encoded date                : UTC 2020-03-18 00:37:57
    Writing application         : mkvmerge v42.0.0 ('Overtime') 64-bit
    Writing library             : libebml v1.3.10 + libmatroska v1.5.2

    Video
    ID                          : 1
    Format                      : AVC
    Format/Info                 : Advanced Video Codec
    Format profile              : High@L4
    Format settings             : CABAC / 4 Ref Frames
    Format settings, CABAC      : Yes
    Format settings, ReFrames   : 4 frames
    Codec ID                    : V_MPEG4/ISO/AVC
    Duration                    : 1 h 35 min
    Bit rate                    : 5 241 kb/s
    Width                       : 1 912 pixels
    Height                      : 1 032 pixels
    Display aspect ratio        : 1.85:1
    Frame rate mode             : Constant
    Frame rate                  : 24.000 FPS
    Color space                 : YUV
    Chroma subsampling          : 4:2:0
    Bit depth                   : 8 bits
    Scan type                   : Progressive
    Bits/(Pixel*Frame)          : 0.111
    Stream size                 : 3.48 GiB (89%)
    Title                       : CinemaniaHDD
    Language                    : English
    Default                     : Yes
    Forced                      : No
    Color range                 : Limited
    Color primaries             : BT.709
    Transfer characteristics    : BT.709
    Matrix coefficients         : BT.709

    Audio #1
    ID                          : 2
    Format                      : AC-3
    Format/Info                 : Audio Coding 3
    Commercial name             : Dolby Digital
    Codec ID                    : A_AC3
    Duration                    : 1 h 35 min
    Bit rate mode               : Constant
    Bit rate                    : 256 kb/s
    Channel(s)                  : 2 channels
    Channel layout              : L R
    Sampling rate               : 48.0 kHz
    Frame rate                  : 31.250 FPS (1536 SPF)
    Bit depth                   : 16 bits
    Compression mode            : Lossy
    Delay relative to video     : -42 ms
    Stream size                 : 174 MiB (4%)
    Title                       : Español latino [CinemaniaHDD]
    Language                    : Spanish
    Service kind                : Complete Main
    Default                     : Yes
    Forced                      : No

    Audio #2
    ID                          : 3
    Format                      : AC-3
    Format/Info                 : Audio Coding 3
    Commercial name             : Dolby Digital
    Codec ID                    : A_AC3
    Duration                    : 1 h 35 min
    Bit rate mode               : Constant
    Bit rate                    : 384 kb/s
    Channel(s)                  : 6 channels
    Channel layout              : L R C LFE Ls Rs
    Sampling rate               : 48.0 kHz
    Frame rate                  : 31.250 FPS (1536 SPF)
    Bit depth                   : 16 bits
    Compression mode            : Lossy
    Delay relative to video     : -42 ms
    Stream size                 : 261 MiB (7%)
    Title                       : Inglés [CinemaniaHDD]
    Language                    : English
    Service kind                : Complete Main
    Default                     : No
    Forced                      : No

    Text #1
    ID                          : 4
    Format                      : UTF-8
    Codec ID                    : S_TEXT/UTF8
    Codec ID/Info               : UTF-8 Plain Text
    Duration                    : 56 min 23 s
    Bit rate                    : 1 b/s
    Count of elements           : 21
    Stream size                 : 439 Bytes (0%)
    Title                       : Forzados [CinemaniaHDD]
    Language                    : Spanish
    Default                     : Yes
    Forced                      : Yes

    Text #2
    ID                          : 5
    Format                      : UTF-8
    Codec ID                    : S_TEXT/UTF8
    Codec ID/Info               : UTF-8 Plain Text
    Duration                    : 1 h 30 min
    Bit rate                    : 49 b/s
    Count of elements           : 932
    Stream size                 : 33.1 KiB (0%)
    Title                       : Español latino [CinemaniaHDD]
    Language                    : Spanish
    Default                     : No
    Forced                      : No

     

  • Peso: 3.90 GiB

Sinopsis

Divertida versión de la historia de Cyrano de Bergerac ambientada en un típico internado masculino británico, donde un estudiante desclasado ( sufre acoso tanto de compañeros como de profesores) intentará ayudar al cabecilla de la clase (un atlético chico con pocas luces) a conseguir el amor de la hija del nuevo profesor de francés.

Ficha técnica

  • Titulo original: Old Boys
  • Fecha de lanzamiento: 22-06-2018 (Sweden, United Kingdom)
  • Director: Toby MacDonald
  • Género: Comedia

Video trailer de la película

Enlaces de descarga

Rip de Bluray

Descargar Old Boys (2018) WEB-DL 1080p Latino




Aportes de DPeliculasHDmega la pass es:dpeliculashdmega.org Aportes de CinemaniaHD la pass es:cinemaniahdd.com
Guardado en : Comedia

Películas relacionadas

descargar Old Boys (2018) WEB-DL 1080p Latino 1080p gratis, Old Boys (2018) WEB-DL 1080p Latino mega 1 link, Old Boys (2018) WEB-DL 1080p Latino pelicula completa, descargar Old Boys (2018) WEB-DL 1080p Latino gratis en mega.

Old Boys (2018) WEB-DL 1080p Latino pelicula full hd, Old Boys (2018) WEB-DL 1080p Latino mega latino, Old Boys (2018) WEB-DL 1080p Latino 4k latino, Old Boys (2018) WEB-DL 1080p Latino pelicula completa, Old Boys (2018) WEB-DL 1080p Latino descargar gratis, descargar Old Boys (2018) WEB-DL 1080p Latino pelicula latino, Old Boys (2018) WEB-DL 1080p Latino 1 link mega, Old Boys (2018) WEB-DL 1080p Latino 1 link google drive, Old Boys (2018) WEB-DL 1080p Latino hd 1080p latino.
Comentarios 0