Old (2021) REMUX 1080p Latino – CMHDD

34 vistas
1 estrella2 estrellas3 estrellas4 estrellas5 estrellas (Ninguna valoración todavía)
Cargando...

Información de Old (2021) REMUX 1080p Latino – CMHDD

Datos de la película

  • Calidad: Full 1080p
  • Audio: Se especifica abajo de la Sinopsis
  • Subtitulos: Español Latino PGS
  • Resolución: 1920x1080p
  • Formato: MKV
  • Codec: H.264
  • Encoder: Dracarys
  • Mediainfo: Clic para Mostrar Datos Ver
  • Format                      : Matroska
    Format version              : Version 4
    File size                   : 25.7 GiB
    Duration                    : 1 h 48 min
    Overall bit rate mode       : Variable
    Overall bit rate            : 33.9 Mb/s
    Movie name                  : Old (2021) REMUX 1080p Latino - CMHDD
    Encoded date                : UTC 2021-10-20 03:02:06
    Writing application         : mkvmerge v17.0.0 ('Be Ur Friend') 64-bit
    Writing library             : libebml v1.3.5 + libmatroska v1.4.8

    Video
    ID                          : 1
    Format                      : AVC
    Format/Info                 : Advanced Video Codec
    Format profile              : High@L4.1
    Format settings             : CABAC / 4 Ref Frames
    Format settings, CABAC      : Yes
    Format settings, Reference  : 4 frames
    Codec ID                    : V_MPEG4/ISO/AVC
    Duration                    : 1 h 48 min
    Bit rate mode               : Variable
    Bit rate                    : 29.7 Mb/s
    Maximum bit rate            : 33.0 Mb/s
    Width                       : 1 920 pixels
    Height                      : 1 080 pixels
    Display aspect ratio        : 16:9
    Frame rate mode             : Constant
    Frame rate                  : 23.976 (24000/1001) FPS
    Color space                 : YUV
    Chroma subsampling          : 4:2:0
    Bit depth                   : 8 bits
    Scan type                   : Progressive
    Bits/(Pixel*Frame)          : 0.596
    Stream size                 : 22.5 GiB (87%)
    Default                     : Yes
    Forced                      : No

    Audio #1
    ID                          : 2
    Format                      : MLP FBA 16-ch
    Format/Info                 : Meridian Lossless Packing FBA with 16-channel presentation
    Commercial name             : Dolby TrueHD with Dolby Atmos
    Codec ID                    : A_TRUEHD
    Duration                    : 1 h 48 min
    Bit rate mode               : Variable
    Bit rate                    : 3 411 kb/s
    Maximum bit rate            : 4 908 kb/s
    Channel(s)                  : 8 channels
    Channel layout              : L R C LFE Ls Rs Lb Rb
    Sampling rate               : 48.0 kHz
    Frame rate                  : 1 200.000 FPS (40 SPF)
    Compression mode            : Lossless
    Stream size                 : 2.58 GiB (10%)
    Language                    : English
    Default                     : No
    Forced                      : No
    Number of dynamic objects   : 11
    Bed channel count           : 1 channel
    Bed channel configuration   : LFE

    Audio #2
    ID                          : 3
    Format                      : E-AC-3
    Format/Info                 : Enhanced AC-3
    Commercial name             : Dolby Digital Plus
    Format profile              : Blu-ray Disc
    Codec ID                    : A_EAC3
    Duration                    : 1 h 48 min
    Bit rate mode               : Constant
    Bit rate                    : 768 kb/s
    Channel(s)                  : 6 channels
    Channel(s)_Original         : 8 channels
    ChannelLayout_Original      : L R C LFE Ls Rs Lrs Rrs
    Sampling rate               : 48.0 kHz
    Frame rate                  : 31.250 FPS (1536 SPF)
    Compression mode            : Lossy
    Stream size                 : 596 MiB (2%)
    Language                    : Spanish
    Service kind                : Complete Main
    Default                     : Yes
    Forced                      : No

    Text #1
    ID                          : 4
    Format                      : PGS
    Muxing mode                 : zlib
    Codec ID                    : S_HDMV/PGS
    Codec ID/Info               : Picture based subtitle format used on BDs/HD-DVDs
    Duration                    : 1 h 47 min
    Bit rate                    : 34.0 kb/s
    Count of elements           : 2599
    Stream size                 : 26.2 MiB (0%)
    Language                    : Spanish
    Default                     : No
    Forced                      : No

    Text #2
    ID                          : 5
    Format                      : PGS
    Muxing mode                 : zlib
    Codec ID                    : S_HDMV/PGS
    Codec ID/Info               : Picture based subtitle format used on BDs/HD-DVDs
    Duration                    : 17 min 15 s
    Bit rate                    : 1 270 b/s
    Count of elements           : 10
    Stream size                 : 161 KiB (0%)
    Language                    : Spanish
    Default                     : Yes
    Forced                      : No

    Menu
    00:00:00.000                : en:Chapter 1
    00:05:50.099                : en:Chapter 2
    00:13:46.617                : en:Chapter 3
    00:18:35.447                : en:Chapter 4
    00:23:05.675                : en:Chapter 5
    00:28:33.044                : en:Chapter 6
    00:32:43.419                : en:Chapter 7
    00:38:01.654                : en:Chapter 8
    00:43:25.894                : en:Chapter 9
    00:47:54.371                : en:Chapter 10
    00:53:05.807                : en:Chapter 11
    01:01:32.939                : en:Chapter 12
    01:05:11.365                : en:Chapter 13
    01:08:52.336                : en:Chapter 14
    01:12:44.068                : en:Chapter 15
    01:18:59.568                : en:Chapter 16
    01:23:29.796                : en:Chapter 17
    01:29:13.222                : en:Chapter 18
    01:34:26.619                : en:Chapter 19
    01:41:18.280                : en:Chapter 20

  • Peso: 25.7 GiB

Sinopsis

Thriller sobre una familia que, estando de vacaciones en un paraíso tropical, descubre que la recóndita playa elegida para relajarse unas horas está haciéndoles envejecer rápidamente… reduciendo toda su vida a un único día.

 

Latino: E-AC3 7.1  – Ingles: TrueHD 7.1

Ficha técnica

Video trailer de la película

Enlaces de descarga

Rip de Bluray

Descargar Old (2021) REMUX 1080p Latino – CMHDD


Aportes de DPeliculasHDmega la pass es:dpeliculashdmega.org Aportes de CinemaniaHD la pass es:cinemaniahdd.com
Guardado en : Misterio , Suspenso , Terror

Películas relacionadas

Old (2021) REMUX 1080p Latino – CMHDD pelicula full hd, Old (2021) REMUX 1080p Latino – CMHDD mega latino, Old (2021) REMUX 1080p Latino – CMHDD 4k latino, Old (2021) REMUX 1080p Latino – CMHDD pelicula completa, Old (2021) REMUX 1080p Latino – CMHDD descargar gratis, descargar Old (2021) REMUX 1080p Latino – CMHDD pelicula latino, Old (2021) REMUX 1080p Latino – CMHDD 1 link mega, Old (2021) REMUX 1080p Latino – CMHDD 1 link google drive, Old (2021) REMUX 1080p Latino – CMHDD hd 1080p latino.
Comentarios 0