×

¿Problemas para descargar con Mozilla, EDGE? Deshabilita la opción "Abrir vinculos en una pestaña nueva" tal como lo muestra ésta imagen.

Okavango El Alma Africana (2018) WEB-DL 1080p Latino

1.090 vistas

Información de Okavango El Alma Africana (2018) WEB-DL 1080p Latino

Datos de la película

  • Calidad: WEBDL
  • Audio: Español Latino AC3 2.0
  • Subtitulos: No
  • Resolución: 1920x1080
  • Formato: MKV
  • Codec: H.264
  • Encoder: cinemaniahdd
  • Mediainfo: Clic para Mostrar Datos Ver
  • Into the Okavango (2018) WEB-DL 1080p Latino.mkv
    Format                      : Matroska
    Format version              : Version 4
    File size                   : 3.28 GiB
    Duration                    : 1 h 29 min
    Overall bit rate            : 5 238 kb/s
    Movie name                  : Into the Okavango (2018) - CinemaniaHDD.Net
    Encoded date                : UTC 2020-03-26 05:26:21
    Writing application         : mkvmerge v42.0.0 ('Overtime') 64-bit
    Writing library             : libebml v1.3.10 + libmatroska v1.5.2

    Video
    ID                          : 1
    Format                      : AVC
    Format/Info                 : Advanced Video Codec
    Format profile              : High@L4
    Format settings             : CABAC / 2 Ref Frames
    Format settings, CABAC      : Yes
    Format settings, ReFrames   : 2 frames
    Codec ID                    : V_MPEG4/ISO/AVC
    Duration                    : 1 h 29 min
    Bit rate                    : 5 000 kb/s
    Width                       : 1 920 pixels
    Height                      : 1 080 pixels
    Display aspect ratio        : 16:9
    Frame rate mode             : Constant
    Frame rate                  : 29.970 FPS
    Color space                 : YUV
    Chroma subsampling          : 4:2:0
    Bit depth                   : 8 bits
    Scan type                   : Progressive
    Bits/(Pixel*Frame)          : 0.080
    Stream size                 : 3.12 GiB (95%)
    Title                       : CinemaniaHDD
    Writing library             : x264 core 148 r2579M 73ae2d1
    Encoding settings           : cabac=1 / ref=2 / deblock=1:0:0 / analyse=0x3:0x113 / me=hex / subme=2 / psy=1 / psy_rd=1.00:0.00 / mixed_ref=0 / me_range=16 / chroma_me=1 / trellis=0 / 8x8dct=1 / cqm=0 / deadzone=21,11 / fast_pskip=1 / chroma_qp_offset=0 / threads=4 / lookahead_threads=1 / sliced_threads=0 / nr=250 / decimate=1 / interlaced=0 / bluray_compat=0 / stitchable=1 / constrained_intra=0 / bframes=0 / weightp=1 / keyint=250 / keyint_min=25 / scenecut=40 / intra_refresh=0 / rc_lookahead=10 / rc=2pass / mbtree=1 / bitrate=5000 / ratetol=1.0 / qcomp=0.60 / qpmin=5 / qpmax=69 / qpstep=4 / cplxblur=20.0 / qblur=0.5 / ip_ratio=1.40 / aq=1:1.00
    Language                    : English
    Default                     : Yes
    Forced                      : No
    Color range                 : Limited
    Color primaries             : BT.2020
    Transfer characteristics    : BT.2020 (10-bit)
    Matrix coefficients         : BT.709

    Audio
    ID                          : 2
    Format                      : AC-3
    Format/Info                 : Audio Coding 3
    Commercial name             : Dolby Digital
    Codec ID                    : A_AC3
    Duration                    : 1 h 29 min
    Bit rate mode               : Constant
    Bit rate                    : 256 kb/s
    Channel(s)                  : 2 channels
    Channel layout              : L R
    Sampling rate               : 48.0 kHz
    Frame rate                  : 31.250 FPS (1536 SPF)
    Bit depth                   : 16 bits
    Compression mode            : Lossy
    Stream size                 : 164 MiB (5%)
    Title                       : Español latino [CinemaniaHDD]
    Language                    : Spanish
    Service kind                : Complete Main
    Default                     : Yes
    Forced                      : No

     

  • Peso: 3.28 GiB

Sinopsis

El Río Okavango es vital para personas, elefantes, leones, guepardos y cientos de aves. Este oasis ahora se encuentra asediado por actividades humanas. Un equipo de exploradores intenta salvar a uno de los últimos humedales del planeta.

Ficha técnica

  • Titulo original: Into the Okavango
  • Fecha de lanzamiento: 22-04-2018 (United States of America)
  • Director: Neil Gelinas
  • Género: Documental

Video trailer de la película

Enlaces de descarga

Rip de Bluray

Descargar Okavango El Alma Africana (2018) WEB-DL 1080p Latino




Aportes de DPeliculasHDmega la pass es:dpeliculashdmega.org Aportes de CinemaniaHD la pass es:cinemaniahdd.com
Guardado en : Documental

Películas relacionadas

descargar Okavango El Alma Africana (2018) WEB-DL 1080p Latino WEBDL 1080p gratis, Okavango El Alma Africana (2018) WEB-DL 1080p Latino WEBDL mega 1 link, Okavango El Alma Africana (2018) WEB-DL 1080p Latino WEBDL pelicula completa, descargar Okavango El Alma Africana (2018) WEB-DL 1080p Latino WEBDL gratis en mega.

Okavango El Alma Africana (2018) WEB-DL 1080p Latino pelicula full hd, Okavango El Alma Africana (2018) WEB-DL 1080p Latino mega latino, Okavango El Alma Africana (2018) WEB-DL 1080p Latino 4k latino, Okavango El Alma Africana (2018) WEB-DL 1080p Latino pelicula completa, Okavango El Alma Africana (2018) WEB-DL 1080p Latino descargar gratis, descargar Okavango El Alma Africana (2018) WEB-DL 1080p Latino pelicula latino, Okavango El Alma Africana (2018) WEB-DL 1080p Latino 1 link mega, Okavango El Alma Africana (2018) WEB-DL 1080p Latino 1 link google drive, Okavango El Alma Africana (2018) WEB-DL 1080p Latino hd 1080p latino.
Comentarios 0