×

¿Problemas para descargar con Mozilla, EDGE? Deshabilita la opción "Abrir vinculos en una pestaña nueva" tal como lo muestra ésta imagen.

Ofrenda Al Demonio (2022) PLACEBO Full HD 1080p Latino

194 vistas

Información de Ofrenda Al Demonio (2022) PLACEBO Full HD 1080p Latino

Datos de la película

  • Calidad: Full 1080p
  • Audio: Español Latino AC3 5.1 WEB-DL - Ingles DTS 5.1 BLURAY
  • Subtitulos: Español Latino SRT- FORZADOS SRT
  • Resolución: 1920x1080p
  • Formato: MKV
  • Codec: H.264
  • Encoder: Melkor
  • Mediainfo: Clic para Mostrar Datos Ver
  • Ofrenda Al Demonio (2022) PLACEBO 1080p Latino.mkv
    Format                      : Matroska
    Format version              : Version 4
    File size                   : 3.97 GiB
    Duration                    : 1 h 33 min
    Overall bit rate            : 6 093 kb/s
    Movie name                  : The Offering (2022) CinemaniaHDD.Net
    Encoded date                : UTC 2023-07-02 20:18:45
    Writing application         : mkvmerge v56.1.0 ('My Friend') 64-bit
    Writing library             : libebml v1.4.2 + libmatroska v1.6.4
    Attachments                 : CINEMANIAHD.png / CINEMANIAHD.png
    Site                        : CinemaniaHDD.Net
    Uploader                    : Melkor

    Video
    ID                          : 1
    Format                      : AVC
    Format/Info                 : Advanced Video Codec
    Format profile              : High@L4.1
    Format settings             : CABAC / 4 Ref Frames
    Format settings, CABAC      : Yes
    Format settings, Reference  : 4 frames
    Codec ID                    : V_MPEG4/ISO/AVC
    Duration                    : 1 h 33 min
    Bit rate                    : 3 302 kb/s
    Width                       : 1 920 pixels
    Height                      : 1 080 pixels
    Display aspect ratio        : 16:9
    Frame rate mode             : Constant
    Frame rate                  : 23.976 (24000/1001) FPS
    Color space                 : YUV
    Chroma subsampling          : 4:2:0
    Bit depth                   : 8 bits
    Scan type                   : Progressive
    Bits/(Pixel*Frame)          : 0.066
    Stream size                 : 2.15 GiB (54%)
    Title                       : Full HD1080p [CinemaniaHDD]
    Writing library             : x264 core 163 r3059 b684ebe0
    Encoding settings           : cabac=1 / ref=4 / deblock=1:0:0 / analyse=0x3:0x133 / me=tesa / subme=11 / psy=1 / psy_rd=1.00:0.00 / mixed_ref=1 / me_range=24 / chroma_me=1 / trellis=2 / 8x8dct=1 / cqm=0 / deadzone=21,11 / fast_pskip=0 / chroma_qp_offset=-2 / threads=24 / lookahead_threads=6 / sliced_threads=0 / nr=0 / decimate=1 / interlaced=0 / bluray_compat=0 / constrained_intra=0 / bframes=16 / b_pyramid=2 / b_adapt=2 / b_bias=0 / direct=3 / weightb=1 / open_gop=0 / weightp=2 / keyint=240 / keyint_min=24 / scenecut=40 / intra_refresh=0 / rc_lookahead=60 / rc=crf / mbtree=1 / crf=19.0 / qcomp=0.60 / qpmin=0 / qpmax=69 / qpstep=4 / vbv_maxrate=62500 / vbv_bufsize=78125 / crf_max=0.0 / nal_hrd=none / filler=0 / ip_ratio=1.40 / aq=1:1.00
    Default                     : Yes
    Forced                      : Yes
    Color range                 : Limited
    Color primaries             : BT.709
    Transfer characteristics    : BT.709
    Matrix coefficients         : BT.709

    Audio #1
    ID                          : 2
    Format                      : AC-3
    Format/Info                 : Audio Coding 3
    Commercial name             : Dolby Digital
    Codec ID                    : A_AC3
    Duration                    : 1 h 33 min
    Bit rate mode               : Constant
    Bit rate                    : 640 kb/s
    Channel(s)                  : 6 channels
    Channel layout              : L R C LFE Ls Rs
    Sampling rate               : 48.0 kHz
    Frame rate                  : 31.250 FPS (1536 SPF)
    Compression mode            : Lossy
    Stream size                 : 427 MiB (11%)
    Title                       : Español Latino [CinemaniaHDD]
    Language                    : Spanish
    Service kind                : Complete Main
    Default                     : Yes
    Forced                      : Yes

    Audio #2
    ID                          : 3
    Format                      : E-AC-3
    Format/Info                 : Enhanced AC-3
    Commercial name             : Dolby Digital Plus
    Codec ID                    : A_EAC3
    Duration                    : 1 h 33 min
    Bit rate mode               : Constant
    Bit rate                    : 640 kb/s
    Channel(s)                  : 6 channels
    Channel layout              : L R C LFE Ls Rs
    Sampling rate               : 48.0 kHz
    Frame rate                  : 31.250 FPS (1536 SPF)
    Compression mode            : Lossy
    Delay relative to video     : 30 ms
    Stream size                 : 426 MiB (10%)
    Title                       : Español Latino EAC3 [CinemaniaHDD]
    Language                    : Spanish
    Service kind                : Complete Main
    Default                     : No
    Forced                      : No

    Audio #3
    ID                          : 4
    Format                      : DTS
    Format/Info                 : Digital Theater Systems
    Codec ID                    : A_DTS
    Duration                    : 1 h 33 min
    Bit rate mode               : Constant
    Bit rate                    : 1 509 kb/s
    Channel(s)                  : 6 channels
    Channel layout              : C L R Ls Rs LFE
    Sampling rate               : 48.0 kHz
    Frame rate                  : 93.750 FPS (512 SPF)
    Bit depth                   : 24 bits
    Compression mode            : Lossy
    Stream size                 : 1 007 MiB (25%)
    Title                       : Ingles [CinemaniaHDD]
    Language                    : English
    Default                     : No
    Forced                      : No

    Text #1
    ID                          : 5
    Format                      : UTF-8
    Codec ID                    : S_TEXT/UTF8
    Codec ID/Info               : UTF-8 Plain Text
    Duration                    : 1 h 26 min
    Bit rate                    : 0 b/s
    Count of elements           : 13
    Stream size                 : 266 Bytes (0%)
    Title                       : Forzados-SRT [CinemaniaHDD]
    Language                    : Spanish
    Default                     : Yes
    Forced                      : Yes

    Text #2
    ID                          : 6
    Format                      : UTF-8
    Codec ID                    : S_TEXT/UTF8
    Codec ID/Info               : UTF-8 Plain Text
    Duration                    : 1 h 27 min
    Bit rate                    : 27 b/s
    Count of elements           : 607
    Stream size                 : 17.8 KiB (0%)
    Title                       : Español-SRT [CinemaniaHDD]
    Language                    : Spanish
    Default                     : No
    Forced                      : No

    Text #3
    ID                          : 7
    Format                      : UTF-8
    Codec ID                    : S_TEXT/UTF8
    Codec ID/Info               : UTF-8 Plain Text
    Duration                    : 1 h 27 min
    Bit rate                    : 28 b/s
    Count of elements           : 738
    Stream size                 : 18.3 KiB (0%)
    Title                       : Ingles [CinemaniaHDD]
    Language                    : English
    Default                     : No
    Forced                      : No

    Menu
    00:00:00.000                : Chapter 01
    00:07:03.589                : Chapter 02
    00:14:11.517                : Chapter 03
    00:21:50.350                : Chapter 04
    00:28:55.275                : Chapter 05
    00:34:25.646                : Chapter 06
    00:40:57.913                : Chapter 07
    00:49:22.834                : Chapter 08
    00:58:02.187                : Chapter 09
    01:03:00.401                : Chapter 10
    01:09:48.642                : Chapter 11
    01:18:43.719                : Chapter 12

  • Peso: 3.97 GiB

Sinopsis

Descargar Ofrenda Al Demonio (2022) PLACEBO Full HD 1080p Latino. Desesperado por pagar sus deudas, un hombre intenta secretamente manipular a su padre para que venda su funeraria. Sin saberlo, desatará a un espíritu maligno que tiene la mirada puesta en su esposa embarazada.

Ficha técnica

Video trailer de la película

Enlaces de descarga

Rip de Bluray

Descargar Ofrenda Al Demonio (2022) PLACEBO Full HD 1080p Latino




Aportes de DPeliculasHDmega la pass es:dpeliculashdmega.org Aportes de CinemaniaHD la pass es:cinemaniahdd.com Aportes recientes:cinemaniahdd.net

Películas relacionadas

descargar Ofrenda Al Demonio (2022) PLACEBO Full HD 1080p Latino Full 1080p 1080p gratis, Ofrenda Al Demonio (2022) PLACEBO Full HD 1080p Latino Full 1080p mega 1 link, Ofrenda Al Demonio (2022) PLACEBO Full HD 1080p Latino Full 1080p pelicula completa, descargar Ofrenda Al Demonio (2022) PLACEBO Full HD 1080p Latino Full 1080p gratis en mega.

Ofrenda Al Demonio (2022) PLACEBO Full HD 1080p Latino pelicula full hd, Ofrenda Al Demonio (2022) PLACEBO Full HD 1080p Latino mega latino, Ofrenda Al Demonio (2022) PLACEBO Full HD 1080p Latino 4k latino, Ofrenda Al Demonio (2022) PLACEBO Full HD 1080p Latino pelicula completa, Ofrenda Al Demonio (2022) PLACEBO Full HD 1080p Latino descargar gratis, descargar Ofrenda Al Demonio (2022) PLACEBO Full HD 1080p Latino pelicula latino, Ofrenda Al Demonio (2022) PLACEBO Full HD 1080p Latino 1 link mega, Ofrenda Al Demonio (2022) PLACEBO Full HD 1080p Latino 1 link google drive, Ofrenda Al Demonio (2022) PLACEBO Full HD 1080p Latino hd 1080p latino.
Comentarios 0