×

¿Problemas para descargar con Mozilla, EDGE? Deshabilita la opción "Abrir vinculos en una pestaña nueva" tal como lo muestra ésta imagen.

Office Space (1999) REMUX 1080p Latino – CMHDD

109 vistas

Información de Office Space (1999) REMUX 1080p Latino – CMHDD

Datos de la película

  • Calidad: Full 1080p
  • Audio: Español Latino AC3 2.0 BLURAY - Ingles DTS 5.1 BLURAY
  • Subtitulos: Español Latino PGS
  • Resolución: 1920x1080p
  • Formato: MKV
  • Codec: H.264
  • Encoder: Dracarys
  • Mediainfo: Clic para Mostrar Datos Ver
  • Format                      : Matroska
    Format version              : Version 4
    File size                   : 22.2 GiB
    Duration                    : 1 h 29 min
    Overall bit rate mode       : Variable
    Overall bit rate            : 35.5 Mb/s
    Movie name                  : Office Space (1999) REMUX 1080p Latino - CMHDD
    Encoded date                : UTC 2021-07-12 17:52:03
    Writing application         : mkvmerge v56.1.0 ('My Friend') 64-bit
    Writing library             : libebml v1.4.2 + libmatroska v1.6.4
    Cover                       : Yes
    Attachments                 : cover.jpg

    Video
    ID                          : 1
    ID in the original source m : 4113 (0x1011)
    Format                      : AVC
    Format/Info                 : Advanced Video Codec
    Format profile              : High@L4.1
    Format settings             : CABAC / 3 Ref Frames
    Format settings, CABAC      : Yes
    Format settings, Reference  : 3 frames
    Format settings, GOP        : M=3, N=24
    Codec ID                    : V_MPEG4/ISO/AVC
    Duration                    : 1 h 29 min
    Bit rate                    : 32.6 Mb/s
    Width                       : 1 920 pixels
    Height                      : 1 080 pixels
    Display aspect ratio        : 16:9
    Frame rate mode             : Constant
    Frame rate                  : 23.976 (24000/1001) FPS
    Color space                 : YUV
    Chroma subsampling          : 4:2:0
    Bit depth                   : 8 bits
    Scan type                   : Progressive
    Bits/(Pixel*Frame)          : 0.656
    Stream size                 : 20.3 GiB (92%)
    Default                     : Yes
    Forced                      : No
    Original source medium      : Blu-ray

    Audio #1
    ID                          : 2
    ID in the original source m : 4352 (0x1100)
    Format                      : DTS XLL
    Format/Info                 : Digital Theater Systems
    Commercial name             : DTS-HD Master Audio
    Codec ID                    : A_DTS
    Duration                    : 1 h 29 min
    Bit rate mode               : Variable
    Bit rate                    : 2 199 kb/s
    Channel(s)                  : 6 channels
    Channel layout              : C L R Ls Rs LFE
    Sampling rate               : 48.0 kHz
    Frame rate                  : 93.750 FPS (512 SPF)
    Bit depth                   : 24 bits
    Compression mode            : Lossless
    Delay relative to video     : 2 ms
    Stream size                 : 1.37 GiB (6%)
    Language                    : English
    Default                     : No
    Forced                      : No
    Original source medium      : Blu-ray

    Audio #2
    ID                          : 3
    ID in the original source m : 4353 (0x1101)
    Format                      : AC-3
    Format/Info                 : Audio Coding 3
    Commercial name             : Dolby Digital
    Codec ID                    : A_AC3
    Duration                    : 1 h 29 min
    Bit rate mode               : Constant
    Bit rate                    : 448 kb/s
    Channel(s)                  : 6 channels
    Channel layout              : L R C LFE Ls Rs
    Sampling rate               : 48.0 kHz
    Frame rate                  : 31.250 FPS (1536 SPF)
    Compression mode            : Lossy
    Delay relative to video     : 23 ms
    Stream size                 : 286 MiB (1%)
    Language                    : English
    Service kind                : Complete Main
    Default                     : No
    Forced                      : No
    Original source medium      : Blu-ray

    Audio #3
    ID                          : 4
    ID in the original source m : 4355 (0x1103)
    Format                      : AC-3
    Format/Info                 : Audio Coding 3
    Commercial name             : Dolby Digital
    Codec ID                    : A_AC3
    Duration                    : 1 h 29 min
    Bit rate mode               : Constant
    Bit rate                    : 224 kb/s
    Channel(s)                  : 2 channels
    Channel layout              : L R
    Sampling rate               : 48.0 kHz
    Frame rate                  : 31.250 FPS (1536 SPF)
    Compression mode            : Lossy
    Delay relative to video     : 23 ms
    Stream size                 : 143 MiB (1%)
    Language                    : Spanish
    Service kind                : Complete Main
    Default                     : Yes
    Forced                      : No
    Original source medium      : Blu-ray

    Text #1
    ID                          : 5
    ID in the original source m : 4610 (0x1202)
    Format                      : PGS
    Muxing mode                 : zlib
    Codec ID                    : S_HDMV/PGS
    Codec ID/Info               : Picture based subtitle format used on BDs/HD-DVDs
    Duration                    : 1 h 22 min
    Bit rate                    : 66.8 kb/s
    Count of elements           : 2414
    Stream size                 : 39.6 MiB (0%)
    Language                    : Spanish
    Default                     : No
    Forced                      : No
    Original source medium      : Blu-ray

    Text #2
    ID                          : 6
    ID in the original source m : 4611 (0x1203)
    Format                      : PGS
    Muxing mode                 : zlib
    Codec ID                    : S_HDMV/PGS
    Codec ID/Info               : Picture based subtitle format used on BDs/HD-DVDs
    Duration                    : 1 h 20 min
    Bit rate                    : 693 b/s
    Count of elements           : 28
    Stream size                 : 409 KiB (0%)
    Language                    : Spanish
    Default                     : No
    Forced                      : No
    Original source medium      : Blu-ray

    Menu
    00:00:00.000                : Chapter 01
    00:03:46.559                : Chapter 02
    00:06:46.280                : Chapter 03
    00:07:57.018                : Chapter 04
    00:10:35.468                : Chapter 05
    00:13:27.014                : Chapter 06
    00:18:18.430                : Chapter 07
    00:20:47.996                : Chapter 08
    00:23:33.328                : Chapter 09
    00:25:43.959                : Chapter 10
    00:27:12.630                : Chapter 11
    00:29:40.945                : Chapter 12
    00:32:45.505                : Chapter 13
    00:34:03.416                : Chapter 14
    00:37:43.052                : Chapter 15
    00:39:00.212                : Chapter 16
    00:41:10.092                : Chapter 17
    00:45:04.326                : Chapter 18
    00:46:23.071                : Chapter 19
    00:48:13.015                : Chapter 20
    00:52:09.542                : Chapter 21
    00:53:47.098                : Chapter 22
    00:55:11.933                : Chapter 23
    00:57:55.305                : Chapter 24
    00:59:40.034                : Chapter 25
    01:01:36.192                : Chapter 26
    01:04:46.507                : Chapter 27
    01:05:57.453                : Chapter 28
    01:09:28.330                : Chapter 29
    01:10:21.300                : Chapter 30
    01:12:40.731                : Chapter 31
    01:15:01.705                : Chapter 32
    01:19:39.649                : Chapter 33
    01:21:03.066                : Chapter 34
    01:22:56.012                : Chapter 35
    01:23:46.646                : Chapter 36

  • Peso: 22.2 GiB

Sinopsis

Harto de su trabajo como programador informático y de su jefe, Peter Gibbons se propone que le despidan para cobrar una buena indemnización y dedicarse a la buena vida junto a una joven camarera llamada Joanna, que es en realidad la que le anima a seguir por ese camino. Pero sus múltiples acciones para conseguir el despido, entre las que figuran llegar tarde o no presentarse al trabajo, son consideradas como una nueva y revolucionaria manera de trabajar, lo que, contra todo pronóstico, le suponen un aumento de sueldo y un ascenso.

Ficha técnica

  • Titulo original: Office Space
  • Fecha de lanzamiento: 19-02-1999 (United States of America)
  • Director: Mike Judge
  • Género: Comedia

Video trailer de la película

Enlaces de descarga

Rip de Bluray

Descargar Office Space (1999) REMUX 1080p Latino – CMHDD


Aportes de DPeliculasHDmega la pass es:dpeliculashdmega.org Aportes de CinemaniaHD la pass es:cinemaniahdd.com
Guardado en : Comedia

Películas relacionadas

  • Zola (2020) HD 1080p Latino

    Zola (2020) HD 1080p Latino

    2020
    Zola (2020) HD 1080p Latino

    1h 26m 2020

    Descargar Zola (2020) HD 1080p Latino. Una camarera accede a acompañar a una bailarina exótica, su...

    Director: Sheri Davani

    Género: Comedia

    Actores: Ts Madison

  • Zola (2020) PLACEBO Full HD 1080p Latino

    Zola (2020) PLACEBO Full HD 1080p Latino

    2020
    Zola (2020) PLACEBO Full HD 1080p Latino

    1h 26m 2020

    Descargar Zola (2020) PLACEBO Full HD 1080p Latino. Una camarera accede a acompañar a una bailarina...

    Director: Sheri Davani

    Género: Comedia

    Actores: Ts Madison

  • Zola (2020) REMUX 1080p Latino

    Zola (2020) REMUX 1080p Latino

    2020
    Zola (2020) REMUX 1080p Latino

    1h 26m 2020

    Descargar Zola (2020) REMUX 1080p Latino. Una camarera accede a acompañar a una bailarina exótica,...

    Director: Sheri Davani

    Género: Comedia

    Actores: Ts Madison

descargar Office Space (1999) REMUX 1080p Latino – CMHDD Full 1080p 1080p gratis, Office Space (1999) REMUX 1080p Latino – CMHDD Full 1080p mega 1 link, Office Space (1999) REMUX 1080p Latino – CMHDD Full 1080p pelicula completa, descargar Office Space (1999) REMUX 1080p Latino – CMHDD Full 1080p gratis en mega.

Office Space (1999) REMUX 1080p Latino – CMHDD pelicula full hd, Office Space (1999) REMUX 1080p Latino – CMHDD mega latino, Office Space (1999) REMUX 1080p Latino – CMHDD 4k latino, Office Space (1999) REMUX 1080p Latino – CMHDD pelicula completa, Office Space (1999) REMUX 1080p Latino – CMHDD descargar gratis, descargar Office Space (1999) REMUX 1080p Latino – CMHDD pelicula latino, Office Space (1999) REMUX 1080p Latino – CMHDD 1 link mega, Office Space (1999) REMUX 1080p Latino – CMHDD 1 link google drive, Office Space (1999) REMUX 1080p Latino – CMHDD hd 1080p latino.