Office Space (1999) Full HD 1080p Latino – CMHDD

59 vistas
1 estrella2 estrellas3 estrellas4 estrellas5 estrellas (Ninguna valoración todavía)
Cargando...

Información de Office Space (1999) Full HD 1080p Latino – CMHDD

Datos de la película

  • Calidad: Full 1080p
  • Audio: Español Latino AC3 2.0 BLURAY - Ingles AC3 5.1 BLURAY
  • Subtitulos: Español Latino PGS
  • Resolución: 1920x1080p
  • Formato: MKV
  • Codec: H.264
  • Encoder: Dracarys
  • Mediainfo: Clic para Mostrar Datos Ver
  • Format                      : Matroska
    Format version              : Version 4
    File size                   : 3.73 GiB
    Duration                    : 1 h 29 min
    Overall bit rate            : 5 987 kb/s
    Movie name                  : Office Space (1999) Full HD 1080p Latino - CMHDD
    Encoded date                : UTC 2021-07-18 21:47:28
    Writing application         : mkvmerge v56.1.0 ('My Friend') 64-bit
    Writing library             : libebml v1.4.2 + libmatroska v1.6.4

    Video
    ID                          : 1
    Format                      : AVC
    Format/Info                 : Advanced Video Codec
    Format profile              : High@L4.1
    Format settings             : CABAC / 4 Ref Frames
    Format settings, CABAC      : Yes
    Format settings, Reference  : 4 frames
    Codec ID                    : V_MPEG4/ISO/AVC
    Duration                    : 1 h 29 min
    Bit rate                    : 5 287 kb/s
    Width                       : 1 920 pixels
    Height                      : 1 080 pixels
    Display aspect ratio        : 16:9
    Frame rate mode             : Constant
    Frame rate                  : 23.976 (24000/1001) FPS
    Color space                 : YUV
    Chroma subsampling          : 4:2:0
    Bit depth                   : 8 bits
    Scan type                   : Progressive
    Bits/(Pixel*Frame)          : 0.106
    Stream size                 : 3.30 GiB (88%)
    Writing library             : x264 core 157 r2935 545de2f
    Encoding settings           : cabac=1 / ref=4 / deblock=1:0:0 / analyse=0x3:0x133 / me=tesa / subme=11 / psy=1 / psy_rd=1.00:0.00 / mixed_ref=1 / me_range=24 / chroma_me=1 / trellis=2 / 8x8dct=1 / cqm=0 / deadzone=21,11 / fast_pskip=0 / chroma_qp_offset=-2 / threads=24 / lookahead_threads=6 / sliced_threads=0 / nr=0 / decimate=1 / interlaced=0 / bluray_compat=0 / constrained_intra=0 / bframes=16 / b_pyramid=2 / b_adapt=2 / b_bias=0 / direct=3 / weightb=1 / open_gop=0 / weightp=2 / keyint=240 / keyint_min=24 / scenecut=40 / intra_refresh=0 / rc_lookahead=60 / rc=crf / mbtree=1 / crf=20.0 / qcomp=0.60 / qpmin=0 / qpmax=69 / qpstep=4 / vbv_maxrate=62500 / vbv_bufsize=78125 / crf_max=0.0 / nal_hrd=none / filler=0 / ip_ratio=1.40 / aq=1:1.00
    Default                     : Yes
    Forced                      : No
    Color range                 : Limited
    Color primaries             : BT.709
    Transfer characteristics    : BT.709
    Matrix coefficients         : BT.709

    Audio #1
    ID                          : 2
    Format                      : AC-3
    Format/Info                 : Audio Coding 3
    Commercial name             : Dolby Digital
    Codec ID                    : A_AC3
    Duration                    : 1 h 29 min
    Bit rate mode               : Constant
    Bit rate                    : 224 kb/s
    Channel(s)                  : 2 channels
    Channel layout              : L R
    Sampling rate               : 48.0 kHz
    Frame rate                  : 31.250 FPS (1536 SPF)
    Compression mode            : Lossy
    Delay relative to video     : 23 ms
    Stream size                 : 143 MiB (4%)
    Language                    : Spanish
    Service kind                : Complete Main
    Default                     : Yes
    Forced                      : No

    Audio #2
    ID                          : 3
    Format                      : AC-3
    Format/Info                 : Audio Coding 3
    Commercial name             : Dolby Digital
    Codec ID                    : A_AC3
    Duration                    : 1 h 29 min
    Bit rate mode               : Constant
    Bit rate                    : 448 kb/s
    Channel(s)                  : 6 channels
    Channel layout              : L R C LFE Ls Rs
    Sampling rate               : 48.0 kHz
    Frame rate                  : 31.250 FPS (1536 SPF)
    Compression mode            : Lossy
    Delay relative to video     : 23 ms
    Stream size                 : 286 MiB (7%)
    Language                    : English
    Service kind                : Complete Main
    Default                     : No
    Forced                      : No

    Text #1
    ID                          : 4
    Format                      : PGS
    Muxing mode                 : zlib
    Codec ID                    : S_HDMV/PGS
    Codec ID/Info               : Picture based subtitle format used on BDs/HD-DVDs
    Duration                    : 1 h 22 min
    Bit rate                    : 66.8 kb/s
    Count of elements           : 2414
    Stream size                 : 39.6 MiB (1%)
    Language                    : Spanish
    Default                     : No
    Forced                      : No

    Text #2
    ID                          : 5
    Format                      : PGS
    Muxing mode                 : zlib
    Codec ID                    : S_HDMV/PGS
    Codec ID/Info               : Picture based subtitle format used on BDs/HD-DVDs
    Duration                    : 1 h 20 min
    Bit rate                    : 693 b/s
    Count of elements           : 28
    Stream size                 : 409 KiB (0%)
    Language                    : Spanish
    Default                     : No
    Forced                      : No

    Menu
    00:00:00.000                : :Chapter 1
    00:03:46.560                : :Chapter 2
    00:06:46.281                : :Chapter 3
    00:07:57.143                : :Chapter 4
    00:10:35.593                : :Chapter 5
    00:13:27.015                : :Chapter 6
    00:18:18.431                : :Chapter 7
    00:20:47.997                : :Chapter 8
    00:23:33.329                : :Chapter 9
    00:25:44.084                : :Chapter 10
    00:27:12.631                : :Chapter 11
    00:29:40.946                : :Chapter 12
    00:32:45.630                : :Chapter 13
    00:34:03.542                : :Chapter 14
    00:37:43.178                : :Chapter 15
    00:39:00.213                : :Chapter 16
    00:41:10.093                : :Chapter 17
    00:45:04.327                : :Chapter 18
    00:46:23.072                : :Chapter 19
    00:48:13.015                : :Chapter 20
    00:52:09.543                : :Chapter 21
    00:53:47.099                : :Chapter 22
    00:55:11.934                : :Chapter 23
    00:57:55.430                : :Chapter 24
    00:59:40.035                : :Chapter 25
    01:01:36.193                : :Chapter 26
    01:04:46.508                : :Chapter 27
    01:05:57.454                : :Chapter 28
    01:09:28.331                : :Chapter 29
    01:10:21.426                : :Chapter 30
    01:12:40.857                : :Chapter 31
    01:15:01.706                : :Chapter 32
    01:19:39.650                : :Chapter 33
    01:21:03.067                : :Chapter 34
    01:22:56.013                : :Chapter 35
    01:23:46.647                : :Chapter 36

  • Peso: 3.73 GiB

Sinopsis

Harto de su trabajo como programador informático y de su jefe, Peter Gibbons se propone que le despidan para cobrar una buena indemnización y dedicarse a la buena vida junto a una joven camarera llamada Joanna, que es en realidad la que le anima a seguir por ese camino. Pero sus múltiples acciones para conseguir el despido, entre las que figuran llegar tarde o no presentarse al trabajo, son consideradas como una nueva y revolucionaria manera de trabajar, lo que, contra todo pronóstico, le suponen un aumento de sueldo y un ascenso.

Ficha técnica

  • Titulo original: Office Space
  • Fecha de lanzamiento: 19-02-1999 (United States of America)
  • Director: Mike Judge
  • Género: Comedia
  • Puntuación: 0.0 0 votos
  • Duración:
    1h 29m

Video trailer de la película

Enlaces de descarga

Rip de Bluray

Descargar Office Space (1999) Full HD 1080p Latino – CMHDD




Aportes de DPeliculasHDmega la pass es:dpeliculashdmega.org Aportes de CinemaniaHD la pass es:cinemaniahdd.com
Guardado en : Comedia

Películas relacionadas

  • Pixie (2020) HBOMAX WEB-DL 1080p Latino

    Pixie (2020) HBOMAX WEB-DL 1080p Latino

    2020
    Pixie (2020) HBOMAX WEB-DL 1080p Latino

    5.0 1h 34m 2020

    Para vengar la muerte de su madre, Pixie planea un atraco, pero debe huir a través de Irlanda de los...

    Director: Stephen Darragh

    Género: Comedia

    Actores: Turlough Convery

  • Space Jam: Una Nueva Era (2021) HD 1080p Latino

    Space Jam: Una Nueva Era (2021) HD 1080p Latino

    2021
    Space Jam: Una Nueva Era (2021) HD 1080p Latino

    0.0 1h 55m 2021

    Descargar Space Jam: Una Nueva Era (2021) HD 1080p Latino. ecuela de la cinta original de 1996, Space...

    Director: Rhys Summerhayes

    Género: Animación

    Actores: Zendaya

  • No, porque me enamoro (2020) AMZN Web-DL 1080p Latino

    No, porque me enamoro (2020) AMZN Web-DL 1080p Latino

    2020
    No, porque me enamoro (2020) AMZN Web-DL 1080p Latino

    0.0 1h 40m 2020

    Descargar No, porque me enamoro (2020) AMZN Web-DL 1080p Latino. Daniela (Sofia de Llaca), una chica...

    Director: Santiago Limón

    Género: Comedia

    Actores: Sofía De Llaca Mata

  • La Excepcion A La Regla (2016) REMUX 1080p Latino

    La Excepcion A La Regla (2016) REMUX 1080p Latino

    2016
    La Excepcion A La Regla (2016) REMUX 1080p Latino

    5.0 2h 6m 2016

    Descargar La Excepcion A La Regla (2016) REMUX 1080p Latino. Hollywood, año 1958. La joven baptista...

    Director: Warren Beatty

    Género: Comedia

    Actores: Warren Beatty

Office Space (1999) Full HD 1080p Latino – CMHDD pelicula full hd, Office Space (1999) Full HD 1080p Latino – CMHDD mega latino, Office Space (1999) Full HD 1080p Latino – CMHDD 4k latino, Office Space (1999) Full HD 1080p Latino – CMHDD pelicula completa, Office Space (1999) Full HD 1080p Latino – CMHDD descargar gratis, descargar Office Space (1999) Full HD 1080p Latino – CMHDD pelicula latino, Office Space (1999) Full HD 1080p Latino – CMHDD 1 link mega, Office Space (1999) Full HD 1080p Latino – CMHDD 1 link google drive, Office Space (1999) Full HD 1080p Latino – CMHDD hd 1080p latino.
Comentarios 0