×

¿Problemas para descargar con Mozilla, EDGE? Deshabilita la opción "Abrir vinculos en una pestaña nueva" tal como lo muestra ésta imagen.

Ocupación (2018) REMUX 1080p Latino

8.367 vistas

Información de Ocupación (2018) REMUX 1080p Latino

Datos de la película

  • Calidad: Full 1080p
  • Audio: Español Latino AC3 5.1 WEB-DL - Ingles DTS 5.1 BLURAY
  • Subtitulos: Español Latino PGS - Ingles PGS
  • Resolución: 1920x1080p
  • Formato: MKV
  • Codec: H.264
  • Encoder: Melkor
  • Mediainfo: Clic para Mostrar Datos Ver
  • Ocupacion (2018) REMUX 1080p Latino.mkv
    Format                      : Matroska
    Format version              : Version 4
    File size                   : 19.8 GiB
    Duration                    : 1 h 59 min
    Overall bit rate mode       : Variable
    Overall bit rate            : 23.7 Mb/s
    Movie name                  : Occupation (2018) CinemaniaHDD.Net
    Encoded date                : UTC 2022-03-14 05:30:35
    Writing application         : mkvmerge v56.1.0 ('My Friend') 64-bit
    Writing library             : libebml v1.4.2 + libmatroska v1.6.4
    Attachments                 : CINEMANIAHD.png

    Video
    ID                          : 1
    Format                      : AVC
    Format/Info                 : Advanced Video Codec
    Format profile              : High@L4.1
    Format settings             : CABAC / 4 Ref Frames
    Format settings, CABAC      : Yes
    Format settings, Reference  : 4 frames
    Codec ID                    : V_MPEG4/ISO/AVC
    Duration                    : 1 h 59 min
    Bit rate mode               : Variable
    Bit rate                    : 19.5 Mb/s
    Maximum bit rate            : 37.0 Mb/s
    Width                       : 1 920 pixels
    Height                      : 1 080 pixels
    Display aspect ratio        : 16:9
    Frame rate mode             : Constant
    Frame rate                  : 23.976 (24000/1001) FPS
    Color space                 : YUV
    Chroma subsampling          : 4:2:0
    Bit depth                   : 8 bits
    Scan type                   : Progressive
    Bits/(Pixel*Frame)          : 0.392
    Stream size                 : 16.3 GiB (82%)
    Title                       : REMUX HD1080p [CinemaniaHDD]
    Language                    : English
    Default                     : Yes
    Forced                      : Yes

    Audio #1
    ID                          : 2
    Format                      : AC-3
    Format/Info                 : Audio Coding 3
    Commercial name             : Dolby Digital
    Codec ID                    : A_AC3
    Duration                    : 1 h 59 min
    Bit rate mode               : Constant
    Bit rate                    : 448 kb/s
    Channel(s)                  : 6 channels
    Channel layout              : L R C LFE Ls Rs
    Sampling rate               : 48.0 kHz
    Frame rate                  : 31.250 FPS (1536 SPF)
    Compression mode            : Lossy
    Stream size                 : 384 MiB (2%)
    Title                       : Español Latino [CinemaniaHDD]
    Language                    : Spanish
    Service kind                : Complete Main
    Default                     : Yes
    Forced                      : Yes

    Audio #2
    ID                          : 3
    Format                      : DTS XLL
    Format/Info                 : Digital Theater Systems
    Commercial name             : DTS-HD Master Audio
    Codec ID                    : A_DTS
    Duration                    : 1 h 59 min
    Bit rate mode               : Variable
    Bit rate                    : 3 698 kb/s
    Channel(s)                  : 6 channels
    Channel layout              : C L R Ls Rs LFE
    Sampling rate               : 48.0 kHz
    Frame rate                  : 93.750 FPS (512 SPF)
    Bit depth                   : 24 bits
    Compression mode            : Lossless
    Stream size                 : 3.10 GiB (16%)
    Title                       : Ingles [CinemaniaHDD]
    Language                    : English
    Default                     : No
    Forced                      : No

    Text #1
    ID                          : 4
    Format                      : PGS
    Muxing mode                 : zlib
    Codec ID                    : S_HDMV/PGS
    Codec ID/Info               : Picture based subtitle format used on BDs/HD-DVDs
    Duration                    : 1 h 52 min
    Bit rate                    : 29.6 kb/s
    Count of elements           : 2522
    Stream size                 : 23.7 MiB (0%)
    Title                       : Español-PGS [CinemaniaHDD]
    Language                    : Spanish
    Default                     : No
    Forced                      : No

    Text #2
    ID                          : 5
    Format                      : PGS
    Muxing mode                 : zlib
    Codec ID                    : S_HDMV/PGS
    Codec ID/Info               : Picture based subtitle format used on BDs/HD-DVDs
    Duration                    : 1 h 56 min
    Bit rate                    : 38.2 kb/s
    Count of elements           : 2968
    Stream size                 : 31.8 MiB (0%)
    Title                       : Ingles-PGS [CinemaniaHDD]
    Language                    : English
    Default                     : No
    Forced                      : No

    Text #3
    ID                          : 6
    Format                      : UTF-8
    Codec ID                    : S_TEXT/UTF8
    Codec ID/Info               : UTF-8 Plain Text
    Duration                    : 1 h 52 min
    Bit rate                    : 0 b/s
    Count of elements           : 15
    Stream size                 : 359 Bytes (0%)
    Title                       : Forzados-SRT [CinemaniaHDD]
    Language                    : Spanish
    Default                     : Yes
    Forced                      : Yes

    Text #4
    ID                          : 7
    Format                      : UTF-8
    Codec ID                    : S_TEXT/UTF8
    Codec ID/Info               : UTF-8 Plain Text
    Duration                    : 1 h 53 min
    Bit rate                    : 52 b/s
    Count of elements           : 1324
    Stream size                 : 43.3 KiB (0%)
    Title                       : Español-SRT [CinemaniaHDD]
    Language                    : Spanish
    Default                     : No
    Forced                      : No

    Menu
    00:00:00.000                : Chapter 1
    00:08:00.271                : Chapter 2
    00:14:20.318                : Chapter 3
    00:23:28.198                : Chapter 4
    00:30:27.284                : Chapter 5
    00:37:09.811                : Chapter 6
    00:45:28.768                : Chapter 7
    00:51:19.535                : Chapter 8
    00:58:58.452                : Chapter 9
    01:06:03.501                : Chapter 10
    01:18:07.057                : Chapter 11
    01:23:34.676                : Chapter 12
    01:31:15.929                : Chapter 13
    01:37:51.991                : Chapter 14
    01:47:34.573                : Chapter 15
    01:52:09.514                : Chapter 16

  • Peso: 19.8 GiB

Sinopsis

Descargar Ocupación (2018) REMUX 1080p Latino. El film se centra en un grupo de civiles que ven como su pequeño pueblo en Australia es aniquilado por un abrumador ataque aéreo. El grupo se encuentra ahora entre los últimos supervivientes de una invasión extraterrestre a escala global. A medida que la humanidad cae bajo el ataque, formarán un pequeño ejército local para luchar contra las muy superiores fuerzas enemigas. En la vanguardia de la batalla por la Tierra, son nuestra última esperanza.

Ficha técnica

Video trailer de la película

Enlaces de descarga

Rip de Bluray

Descargar Ocupación (2018) REMUX 1080p Latino




Aportes de DPeliculasHDmega la pass es:dpeliculashdmega.org Aportes de CinemaniaHD la pass es:cinemaniahdd.com
Guardado en : Acción , Ciencia ficción , Drama , Remux

Películas relacionadas

  • Un mundo extraño (2022) HD 1080p Latino

    Un mundo extraño (2022) HD 1080p Latino

    2022
    Un mundo extraño (2022) HD 1080p Latino

    1h 42m 2022

    Descargar Un mundo extraño (2022) HD 1080p Latino. Los Clades son una familia conocida en todo el mundo,...

    Director: Thai Bettistea

    Género: Animación

    Actores: Reed Buck

  • Un mundo extraño (2022) REMUX 1080p Latino

    Un mundo extraño (2022) REMUX 1080p Latino

    2022
    Un mundo extraño (2022) REMUX 1080p Latino

    1h 42m 2022

    Descargar Un mundo extraño (2022) REMUX 1080p. Un viaje a una tierra inexplorada y traicionera en la...

    Director: Thai Bettistea

    Género: Animación

    Actores: Reed Buck

  • Stromboli (2022) NF WEB-DL 1080p Latino

    Stromboli (2022) NF WEB-DL 1080p Latino

    2022
    Stromboli (2022) NF WEB-DL 1080p Latino

    1h 26m 2022

    Descargar Stromboli (2022) NF WEB-DL 1080p Latino. Sara, una mujer que se ha divorciado recientemente,...

    Director: Michiel van Erp

    Género: Drama

    Actores: Tim McInnerny

descargar Ocupación (2018) REMUX 1080p Latino Full 1080p 1080p gratis, Ocupación (2018) REMUX 1080p Latino Full 1080p mega 1 link, Ocupación (2018) REMUX 1080p Latino Full 1080p pelicula completa, descargar Ocupación (2018) REMUX 1080p Latino Full 1080p gratis en mega.

Ocupación (2018) REMUX 1080p Latino pelicula full hd, Ocupación (2018) REMUX 1080p Latino mega latino, Ocupación (2018) REMUX 1080p Latino 4k latino, Ocupación (2018) REMUX 1080p Latino pelicula completa, Ocupación (2018) REMUX 1080p Latino descargar gratis, descargar Ocupación (2018) REMUX 1080p Latino pelicula latino, Ocupación (2018) REMUX 1080p Latino 1 link mega, Ocupación (2018) REMUX 1080p Latino 1 link google drive, Ocupación (2018) REMUX 1080p Latino hd 1080p latino.
Comentarios 0