×

¿Problemas para descargar con Mozilla, EDGE? Deshabilita la opción "Abrir vinculos en una pestaña nueva" tal como lo muestra ésta imagen.

James Bond: Octopussy (1983) REMUX 1080p Latino

488 vistas

Información de James Bond: Octopussy (1983) REMUX 1080p Latino

Datos de la película

  • Calidad: Full 1080p
  • Audio: Español Latino AC3 5.1 BLURAY - Ingles DTS 5.1 BLURAY
  • Subtitulos: Español Latino PGS - Ingles PGS
  • Resolución: 1920x1080p
  • Formato: MKV
  • Codec: H.264
  • Encoder: CinefiloCool
  • Mediainfo: Clic para Mostrar Datos Ver
  • Octopussy - 007 Contra Las Chicas Mortales (1983) REMUX 1080p Latino-CMHDD.mkv
    Format                      : Matroska
    Format version              : Version 4
    File size                   : 28.8 GiB
    Duration                    : 2 h 10 min
    Overall bit rate mode       : Variable
    Overall bit rate            : 31.5 Mb/s
    Movie name                  : Octopussy (1983) CinemaniaHDD.Net
    Encoded date                : UTC 2020-06-06 18:15:04
    Writing application         : mkvmerge v46.0.0 ('No Deeper Escape') 64-bit
    Writing library             : libebml v1.3.10 + libmatroska v1.5.2
    Attachments                 : CINEMANIAHD.png

    Video
    ID                          : 1
    Format                      : AVC
    Format/Info                 : Advanced Video Codec
    Format profile              : High@L4.1
    Format settings             : CABAC / 4 Ref Frames
    Format settings, CABAC      : Yes
    Format settings, Reference  : 4 frames
    Codec ID                    : V_MPEG4/ISO/AVC
    Duration                    : 2 h 10 min
    Bit rate mode               : Variable
    Bit rate                    : 26.9 Mb/s
    Maximum bit rate            : 32.0 Mb/s
    Width                       : 1 920 pixels
    Height                      : 1 080 pixels
    Display aspect ratio        : 16:9
    Frame rate mode             : Constant
    Frame rate                  : 23.976 (24000/1001) FPS
    Color space                 : YUV
    Chroma subsampling          : 4:2:0
    Bit depth                   : 8 bits
    Scan type                   : Progressive
    Bits/(Pixel*Frame)          : 0.541
    Stream size                 : 24.6 GiB (85%)
    Title                       : REMUX 1080p [CinemaniaHDD]
    Language                    : English
    Default                     : Yes
    Forced                      : No

    Audio #1
    ID                          : 2
    Format                      : AC-3
    Format/Info                 : Audio Coding 3
    Commercial name             : Dolby Digital
    Codec ID                    : A_AC3
    Duration                    : 2 h 10 min
    Bit rate mode               : Constant
    Bit rate                    : 448 kb/s
    Channel(s)                  : 6 channels
    Channel layout              : L R C LFE Ls Rs
    Sampling rate               : 48.0 kHz
    Frame rate                  : 31.250 FPS (1536 SPF)
    Compression mode            : Lossy
    Stream size                 : 419 MiB (1%)
    Title                       : Español Latino [CinemaniaHDD]
    Language                    : Spanish
    Service kind                : Complete Main
    Default                     : Yes
    Forced                      : Yes

    Audio #2
    ID                          : 3
    Format                      : DTS XLL
    Format/Info                 : Digital Theater Systems
    Commercial name             : DTS-HD Master Audio
    Codec ID                    : A_DTS
    Duration                    : 2 h 10 min
    Bit rate mode               : Variable
    Bit rate                    : 4 175 kb/s
    Channel(s)                  : 6 channels
    Channel layout              : C L R Ls Rs LFE
    Sampling rate               : 48.0 kHz
    Frame rate                  : 93.750 FPS (512 SPF)
    Bit depth                   : 24 bits
    Compression mode            : Lossless
    Stream size                 : 3.81 GiB (13%)
    Title                       : Ingles [CinemaniaHDD]
    Language                    : English
    Default                     : No
    Forced                      : No

    Text #1
    ID                          : 4
    Format                      : PGS
    Muxing mode                 : zlib
    Codec ID                    : S_HDMV/PGS
    Codec ID/Info               : Picture based subtitle format used on BDs/HD-DVDs
    Duration                    : 2 h 3 min
    Bit rate                    : 131 b/s
    Count of elements           : 14
    Stream size                 : 119 KiB (0%)
    Title                       : Forzados-PGS [CinemaniaHDD]
    Language                    : Spanish
    Default                     : Yes
    Forced                      : Yes

    Text #2
    ID                          : 5
    Format                      : PGS
    Muxing mode                 : zlib
    Codec ID                    : S_HDMV/PGS
    Codec ID/Info               : Picture based subtitle format used on BDs/HD-DVDs
    Duration                    : 2 h 9 min
    Bit rate                    : 19.9 kb/s
    Count of elements           : 1670
    Stream size                 : 18.4 MiB (0%)
    Title                       : Español-PGS [CinemaniaHDD]
    Language                    : Spanish
    Default                     : No
    Forced                      : No

    Text #3
    ID                          : 6
    Format                      : PGS
    Muxing mode                 : zlib
    Codec ID                    : S_HDMV/PGS
    Codec ID/Info               : Picture based subtitle format used on BDs/HD-DVDs
    Duration                    : 2 h 9 min
    Bit rate                    : 17.4 kb/s
    Count of elements           : 1476
    Stream size                 : 16.1 MiB (0%)
    Title                       : Ingles-PGS [CinemaniaHDD]
    Language                    : English
    Default                     : No
    Forced                      : No

    Text #4
    ID                          : 7
    Format                      : UTF-8
    Codec ID                    : S_TEXT/UTF8
    Codec ID/Info               : UTF-8 Plain Text
    Duration                    : 2 h 3 min
    Bit rate                    : 0 b/s
    Count of elements           : 14
    Stream size                 : 402 Bytes (0%)
    Title                       : Forzados-SRT [CinemaniaHDD]
    Language                    : Spanish
    Default                     : No
    Forced                      : No

    Text #5
    ID                          : 8
    Format                      : UTF-8
    Codec ID                    : S_TEXT/UTF8
    Codec ID/Info               : UTF-8 Plain Text
    Duration                    : 2 h 8 min
    Bit rate                    : 32 b/s
    Count of elements           : 833
    Stream size                 : 30.4 KiB (0%)
    Title                       : Español-SRT [CinemaniaHDD]
    Language                    : Spanish
    Default                     : No
    Forced                      : No

    Menu
    00:00:00.000                : en:Chapter 1
    00:03:16.946                : en:Chapter 2
    00:07:28.197                : en:Chapter 3
    00:10:36.177                : en:Chapter 4
    00:13:22.760                : en:Chapter 5
    00:16:10.094                : en:Chapter 6
    00:19:33.088                : en:Chapter 7
    00:25:20.727                : en:Chapter 8
    00:29:13.668                : en:Chapter 9
    00:34:10.840                : en:Chapter 10
    00:38:50.536                : en:Chapter 11
    00:41:38.370                : en:Chapter 12
    00:46:29.286                : en:Chapter 13
    00:49:10.072                : en:Chapter 14
    00:53:43.428                : en:Chapter 15
    00:56:22.587                : en:Chapter 16
    01:00:27.123                : en:Chapter 17
    01:06:06.337                : en:Chapter 18
    01:11:43.924                : en:Chapter 19
    01:14:10.696                : en:Chapter 20
    01:20:24.402                : en:Chapter 21
    01:22:27.859                : en:Chapter 22
    01:25:32.377                : en:Chapter 23
    01:28:24.173                : en:Chapter 24
    01:31:51.297                : en:Chapter 25
    01:40:06.959                : en:Chapter 26
    01:45:25.861                : en:Chapter 27
    01:51:06.451                : en:Chapter 28
    01:55:59.452                : en:Chapter 29
    01:59:50.099                : en:Chapter 30
    02:02:46.067                : en:Chapter 31
    02:07:35.105                : en:Chapter 32

  • Peso: 28.8 GiB

Sinopsis

Descargar James Bond: Octopussy (1983) REMUX 1080p Latino. El agente 009, compañero de James Bond, es asesinado en Berlín Oriental, aunque consigue llegar a la residencia del embajador británico antes de morir, llevando consigo una valiosísima pieza de orfebrería: un huevo de Pascua, creado por Fabergé. En Londres, especialistas del Servicio Secreto constatan que se trata de una falsificación de la joya original, que será subastada en breve. El hecho de que en un corto período de tiempo se hayan vendido piezas parecidas despierta las sospechas de los responsables de Inteligencia, que temen una maniobra rusa que estaría encaminada a recaudar fondos que irían destinados a oscuras operaciones. Tras la pista de Kamal Khan, turbio traficante de objetos de arte, James Bond llega a la India, lugar en el que descubrirá la relación entre el sospechoso, una misteriosa mujer conocida como Octopussy y el General Orlov, implicados todos ellos en una conspiración que pretende desatar un conflicto nuclear.

Ficha técnica

Video trailer de la película

Enlaces de descarga

Rip de Bluray

Descargar James Bond: Octopussy (1983) REMUX 1080p Latino




Aportes de DPeliculasHDmega la pass es:dpeliculashdmega.org Aportes de CinemaniaHD la pass es:cinemaniahdd.com
Guardado en : Acción , Aventura , Remux , Suspenso

Películas relacionadas

  • Corazón de tinta (2008) Full HD 1080p Latino

    Corazón de tinta (2008) Full HD 1080p Latino

    2008
    Corazón de tinta (2008) Full HD 1080p Latino

    1h 46m 2008

    Descargar Corazón de tinta (2008) Full HD 1080p Latino. Mortimer “Mo” Folchart y su hija de 12 años,...

    Director: Sharon Mansfield

    Género: Aventura

    Actores: Terry Cavanagh

  • Corazón de tinta (2008) REMUX 1080p Latino

    Corazón de tinta (2008) REMUX 1080p Latino

    2008
    Corazón de tinta (2008) REMUX 1080p Latino

    1h 46m 2008

    Descargar Corazón de tinta (2008) REMUX 1080p Latino. Mortimer “Mo” Folchart y su hija de 12 años,...

    Director: Sharon Mansfield

    Género: Aventura

    Actores: Tereza Srbová

  • Juego de espías (2001) 1080p Latino

    Juego de espías (2001) 1080p Latino

    2001
    Juego de espías (2001) 1080p Latino

    2h 6m 2001

    Descargar Juego de espías (2001) 1080p Latino. Corre el año 1991, y al veterano agente de la CIA Nathan...

    Director: Tony Scott

    Género: Acción

    Actores: Zsolt Zágoni

  • Juego de espías (2001) Full HD 1080p Latino

    Juego de espías (2001) Full HD 1080p Latino

    2001
    Juego de espías (2001) Full HD 1080p Latino

    2h 6m 2001

    Descargar Juego de espías (2001) Full HD 1080p Latino. Corre el año 1991, y al veterano agente de la...

    Director: Tony Scott

    Género: Acción

    Actores: Zsolt Zágoni

descargar James Bond: Octopussy (1983) REMUX 1080p Latino Full 1080p 1080p gratis, James Bond: Octopussy (1983) REMUX 1080p Latino Full 1080p mega 1 link, James Bond: Octopussy (1983) REMUX 1080p Latino Full 1080p pelicula completa, descargar James Bond: Octopussy (1983) REMUX 1080p Latino Full 1080p gratis en mega.

James Bond: Octopussy (1983) REMUX 1080p Latino pelicula full hd, James Bond: Octopussy (1983) REMUX 1080p Latino mega latino, James Bond: Octopussy (1983) REMUX 1080p Latino 4k latino, James Bond: Octopussy (1983) REMUX 1080p Latino pelicula completa, James Bond: Octopussy (1983) REMUX 1080p Latino descargar gratis, descargar James Bond: Octopussy (1983) REMUX 1080p Latino pelicula latino, James Bond: Octopussy (1983) REMUX 1080p Latino 1 link mega, James Bond: Octopussy (1983) REMUX 1080p Latino 1 link google drive, James Bond: Octopussy (1983) REMUX 1080p Latino hd 1080p latino.
Comentarios 0