×

¿Problemas para descargar con Mozilla, EDGE? Deshabilita la opción "Abrir vinculos en una pestaña nueva" tal como lo muestra ésta imagen.

Oceans Twelve (2004) REMUX 1080p Latino – CMHDD

286 vistas

Información de Oceans Twelve (2004) REMUX 1080p Latino – CMHDD

Datos de la película

  • Calidad: Full 1080p
  • Audio: Español Latino AC3 2.0 BLURAY - Ingles AC3 5.1 BLURAY
  • Subtitulos: Español Latino PGS
  • Resolución: 1920x1080p
  • Formato:
  • Codec: H.264
  • Encoder: Dracarys
  • Mediainfo: Clic para Mostrar Datos Ver
  • Format                      : Matroska
    Format version              : Version 4
    File size                   : 14.8 GiB
    Duration                    : 2 h 5 min
    Overall bit rate            : 16.9 Mb/s
    Movie name                  : Oceans Twelve (2004) REMUX  1080p Latino - CMHDD
    Encoded date                : UTC 2021-01-23 17:08:20
    Writing application         : mkvmerge v51.0.0 ('I Wish') 64-bit
    Writing library             : libebml v1.4.0 + libmatroska v1.6.2

    Video
    ID                          : 1
    Format                      : VC-1
    Format profile              : Advanced@L3
    Codec ID                    : V_MS/VFW/FOURCC / WVC1
    Codec ID/Hint               : Microsoft
    Duration                    : 2 h 5 min
    Bit rate                    : 16.1 Mb/s
    Width                       : 1 920 pixels
    Height                      : 1 080 pixels
    Display aspect ratio        : 16:9
    Frame rate mode             : Constant
    Frame rate                  : 23.976 (24000/1001) FPS
    Color space                 : YUV
    Chroma subsampling          : 4:2:0
    Bit depth                   : 8 bits
    Scan type                   : Progressive
    Compression mode            : Lossy
    Bits/(Pixel*Frame)          : 0.323
    Stream size                 : 14.1 GiB (95%)
    Default                     : Yes
    Forced                      : No

    Audio #1
    ID                          : 2
    Format                      : AC-3
    Format/Info                 : Audio Coding 3
    Commercial name             : Dolby Digital
    Codec ID                    : A_AC3
    Duration                    : 2 h 5 min
    Bit rate mode               : Constant
    Bit rate                    : 192 kb/s
    Channel(s)                  : 2 channels
    Channel layout              : L R
    Sampling rate               : 48.0 kHz
    Frame rate                  : 31.250 FPS (1536 SPF)
    Compression mode            : Lossy
    Stream size                 : 172 MiB (1%)
    Language                    : Spanish
    Service kind                : Complete Main
    Default                     : Yes
    Forced                      : No

    Audio #2
    ID                          : 3
    Format                      : AC-3
    Format/Info                 : Audio Coding 3
    Commercial name             : Dolby Digital
    Codec ID                    : A_AC3
    Duration                    : 2 h 5 min
    Bit rate mode               : Constant
    Bit rate                    : 640 kb/s
    Channel(s)                  : 6 channels
    Channel layout              : L R C LFE Ls Rs
    Sampling rate               : 48.0 kHz
    Frame rate                  : 31.250 FPS (1536 SPF)
    Compression mode            : Lossy
    Stream size                 : 574 MiB (4%)
    Language                    : English
    Service kind                : Complete Main
    Default                     : No
    Forced                      : No

    Text
    ID                          : 4
    Format                      : PGS
    Muxing mode                 : zlib
    Codec ID                    : S_HDMV/PGS
    Codec ID/Info               : Picture based subtitle format used on BDs/HD-DVDs
    Duration                    : 2 h 4 min
    Bit rate                    : 37.1 kb/s
    Count of elements           : 2993
    Stream size                 : 33.0 MiB (0%)
    Language                    : Spanish
    Default                     : No
    Forced                      : No

  • Peso: 14.8 GiB

Sinopsis

Han pasado tres años desde que Danny Ocean (George Clooney) y su equipo –liderado por el detallista Rusty Ryan (Brad Pitt), el prometedor carterista Linus Caldwell (Matt Damon), el experto en explosivos Basher Tarr (Don Cheadle) y el desvalijador de cajas fuertes Frank Catton (Bernie Mac)– llevaron a cabo uno de los más audaces y lucrativos atracos de la historia, robando al despiadado empresario Terry Benedict (Andy Garcia) hasta el último centavo que guardaba en su impenetrable cámara acorazada de Las Vegas. Después de repartir los 160 millones de dólares conseguidos, cada uno de los conocidos miembros del equipo de Ocean ha tratado de portarse bien, pasar desapercibido y llevar una vida legal… pero eso ha resultado ser difícil, para disgusto de Tess (Julia Roberts), la esposa de Danny.

Ficha técnica

Video trailer de la película

Enlaces de descarga

Rip de Bluray

Descargar Oceans Twelve (2004) REMUX 1080p Latino – CMHDD


Aportes de DPeliculasHDmega la pass es:dpeliculashdmega.org Aportes de CinemaniaHD la pass es:cinemaniahdd.com
Guardado en : Crimen , Suspenso

Películas relacionadas

descargar Oceans Twelve (2004) REMUX 1080p Latino – CMHDD Full 1080p 1080p gratis, Oceans Twelve (2004) REMUX 1080p Latino – CMHDD Full 1080p mega 1 link, Oceans Twelve (2004) REMUX 1080p Latino – CMHDD Full 1080p pelicula completa, descargar Oceans Twelve (2004) REMUX 1080p Latino – CMHDD Full 1080p gratis en mega.

Oceans Twelve (2004) REMUX 1080p Latino – CMHDD pelicula full hd, Oceans Twelve (2004) REMUX 1080p Latino – CMHDD mega latino, Oceans Twelve (2004) REMUX 1080p Latino – CMHDD 4k latino, Oceans Twelve (2004) REMUX 1080p Latino – CMHDD pelicula completa, Oceans Twelve (2004) REMUX 1080p Latino – CMHDD descargar gratis, descargar Oceans Twelve (2004) REMUX 1080p Latino – CMHDD pelicula latino, Oceans Twelve (2004) REMUX 1080p Latino – CMHDD 1 link mega, Oceans Twelve (2004) REMUX 1080p Latino – CMHDD 1 link google drive, Oceans Twelve (2004) REMUX 1080p Latino – CMHDD hd 1080p latino.
Comentarios 0