×

¿Problemas para descargar con Mozilla, EDGE? Deshabilita la opción "Abrir vinculos en una pestaña nueva" tal como lo muestra ésta imagen.

Oceans Thirteen (2007) REMUX 1080p Latino – CMHDD

213 vistas

Información de Oceans Thirteen (2007) REMUX 1080p Latino – CMHDD

Datos de la película

  • Calidad: Full 1080p
  • Audio: Español Latino AC3 5.1 BLURAY - Ingles AC3 5.1 BLURAY
  • Subtitulos: Español Latino PGS
  • Resolución: 1920x1080p
  • Formato: MKV
  • Codec: H.264
  • Encoder: Dracarys
  • Mediainfo: Clic para Mostrar Datos Ver
  • Format                      : Matroska
    Format version              : Version 4
    File size                   : 15.4 GiB
    Duration                    : 2 h 2 min
    Overall bit rate            : 18.1 Mb/s
    Movie name                  : Oceans Thirteen (2007) REMUX 1080p Latino - CMHDD
    Encoded date                : UTC 2021-01-23 17:09:51
    Writing application         : mkvmerge v51.0.0 ('I Wish') 64-bit
    Writing library             : libebml v1.4.0 + libmatroska v1.6.2

    Video
    ID                          : 1
    Format                      : VC-1
    Format profile              : Advanced@L3
    Codec ID                    : V_MS/VFW/FOURCC / WVC1
    Codec ID/Hint               : Microsoft
    Duration                    : 2 h 2 min
    Bit rate                    : 17.0 Mb/s
    Width                       : 1 920 pixels
    Height                      : 1 080 pixels
    Display aspect ratio        : 16:9
    Frame rate mode             : Constant
    Frame rate                  : 23.976 (24000/1001) FPS
    Color space                 : YUV
    Chroma subsampling          : 4:2:0
    Bit depth                   : 8 bits
    Scan type                   : Progressive
    Compression mode            : Lossy
    Bits/(Pixel*Frame)          : 0.341
    Stream size                 : 14.5 GiB (94%)
    Default                     : Yes
    Forced                      : No

    Audio #1
    ID                          : 2
    Format                      : AC-3
    Format/Info                 : Audio Coding 3
    Commercial name             : Dolby Digital
    Codec ID                    : A_AC3
    Duration                    : 2 h 2 min
    Bit rate mode               : Constant
    Bit rate                    : 448 kb/s
    Channel(s)                  : 6 channels
    Channel layout              : L R C LFE Ls Rs
    Sampling rate               : 48.0 kHz
    Frame rate                  : 31.250 FPS (1536 SPF)
    Compression mode            : Lossy
    Stream size                 : 391 MiB (2%)
    Language                    : Spanish
    Service kind                : Complete Main
    Default                     : Yes
    Forced                      : No

    Audio #2
    ID                          : 3
    Format                      : AC-3
    Format/Info                 : Audio Coding 3
    Commercial name             : Dolby Digital
    Codec ID                    : A_AC3
    Duration                    : 2 h 2 min
    Bit rate mode               : Constant
    Bit rate                    : 640 kb/s
    Channel(s)                  : 6 channels
    Channel layout              : L R C LFE Ls Rs
    Sampling rate               : 48.0 kHz
    Frame rate                  : 31.250 FPS (1536 SPF)
    Compression mode            : Lossy
    Stream size                 : 559 MiB (4%)
    Language                    : English
    Service kind                : Complete Main
    Default                     : No
    Forced                      : No

    Text #1
    ID                          : 4
    Format                      : PGS
    Muxing mode                 : zlib
    Codec ID                    : S_HDMV/PGS
    Codec ID/Info               : Picture based subtitle format used on BDs/HD-DVDs
    Duration                    : 2 h 0 min
    Bit rate                    : 32.1 kb/s
    Count of elements           : 2685
    Stream size                 : 27.7 MiB (0%)
    Language                    : Spanish
    Default                     : No
    Forced                      : No

    Text #2
    ID                          : 5
    Format                      : PGS
    Muxing mode                 : zlib
    Codec ID                    : S_HDMV/PGS
    Codec ID/Info               : Picture based subtitle format used on BDs/HD-DVDs
    Duration                    : 1 h 30 min
    Bit rate                    : 530 b/s
    Count of elements           : 41
    Stream size                 : 351 KiB (0%)
    Language                    : Spanish
    Default                     : Yes
    Forced                      : No

  • Peso: 15.4 GiB

Sinopsis

Danny Ocean y su banda sólo tendrían una razón para realizar su golpe más ambicioso y arriesgado: defender a uno de los suyos. Willy Bank, el despiadado propietario de un casino, nunca hubiera imaginado que todo se iba a poner en su contra cuando traicionó a Reuben Tishkoff, amigo y mentor de Danny Ocean. Pero Bank se equivocó… para su desgracia. Quizás pudo derrotar a uno de los miembros originales de la banda, pero dejó a los demás en pie y les dio un propósito compartido: derrotar a Bank en la noche de la gran inauguración de su nuevo casino.

Ficha técnica

Video trailer de la película

Enlaces de descarga

Rip de Bluray

Descargar Oceans Thirteen (2007) REMUX 1080p Latino – CMHDD


Aportes de DPeliculasHDmega la pass es:dpeliculashdmega.org Aportes de CinemaniaHD la pass es:cinemaniahdd.com
Guardado en : Crimen , Suspenso

Películas relacionadas

descargar Oceans Thirteen (2007) REMUX 1080p Latino – CMHDD Full 1080p 1080p gratis, Oceans Thirteen (2007) REMUX 1080p Latino – CMHDD Full 1080p mega 1 link, Oceans Thirteen (2007) REMUX 1080p Latino – CMHDD Full 1080p pelicula completa, descargar Oceans Thirteen (2007) REMUX 1080p Latino – CMHDD Full 1080p gratis en mega.

Oceans Thirteen (2007) REMUX 1080p Latino – CMHDD pelicula full hd, Oceans Thirteen (2007) REMUX 1080p Latino – CMHDD mega latino, Oceans Thirteen (2007) REMUX 1080p Latino – CMHDD 4k latino, Oceans Thirteen (2007) REMUX 1080p Latino – CMHDD pelicula completa, Oceans Thirteen (2007) REMUX 1080p Latino – CMHDD descargar gratis, descargar Oceans Thirteen (2007) REMUX 1080p Latino – CMHDD pelicula latino, Oceans Thirteen (2007) REMUX 1080p Latino – CMHDD 1 link mega, Oceans Thirteen (2007) REMUX 1080p Latino – CMHDD 1 link google drive, Oceans Thirteen (2007) REMUX 1080p Latino – CMHDD hd 1080p latino.
Comentarios 0