×

¿Problemas para descargar con Mozilla, EDGE? Deshabilita la opción "Abrir vinculos en una pestaña nueva" tal como lo muestra ésta imagen.

Oceans Eleven (2001) REMUX 1080p Latino – CMHDD

251 vistas

Información de Oceans Eleven (2001) REMUX 1080p Latino – CMHDD

Datos de la película

  • Calidad: Full 1080p
  • Audio: Español Latino AC3 2.0 BLURAY - Ingles AC3 5.1 BLURAY
  • Subtitulos: Español Latino PGS
  • Resolución: 1920x1080p
  • Formato: MKV
  • Codec: H.264
  • Encoder: Dracarys
  • Mediainfo: Clic para Mostrar Datos Ver
  • Format                      : Matroska
    Format version              : Version 4
    File size                   : 15.7 GiB
    Duration                    : 1 h 56 min
    Overall bit rate            : 19.3 Mb/s
    Movie name                  : Oceans Eleven (2001) REMUX 1080p Latino - CMHDD
    Encoded date                : UTC 2021-01-23 17:05:58
    Writing application         : mkvmerge v51.0.0 ('I Wish') 64-bit
    Writing library             : libebml v1.4.0 + libmatroska v1.6.2

    Video
    ID                          : 1
    Format                      : VC-1
    Format profile              : Advanced@L3
    Codec ID                    : V_MS/VFW/FOURCC / WVC1
    Codec ID/Hint               : Microsoft
    Duration                    : 1 h 56 min
    Bit rate                    : 18.4 Mb/s
    Width                       : 1 920 pixels
    Height                      : 1 080 pixels
    Display aspect ratio        : 16:9
    Frame rate mode             : Constant
    Frame rate                  : 23.976 (24000/1001) FPS
    Color space                 : YUV
    Chroma subsampling          : 4:2:0
    Bit depth                   : 8 bits
    Scan type                   : Progressive
    Compression mode            : Lossy
    Bits/(Pixel*Frame)          : 0.371
    Stream size                 : 15.0 GiB (96%)
    Default                     : Yes
    Forced                      : No

    Audio #1
    ID                          : 2
    Format                      : AC-3
    Format/Info                 : Audio Coding 3
    Commercial name             : Dolby Digital
    Codec ID                    : A_AC3
    Duration                    : 1 h 56 min
    Bit rate mode               : Constant
    Bit rate                    : 192 kb/s
    Channel(s)                  : 2 channels
    Channel layout              : L R
    Sampling rate               : 48.0 kHz
    Frame rate                  : 31.250 FPS (1536 SPF)
    Compression mode            : Lossy
    Stream size                 : 160 MiB (1%)
    Language                    : Spanish
    Service kind                : Complete Main
    Default                     : Yes
    Forced                      : No

    Audio #2
    ID                          : 3
    Format                      : AC-3
    Format/Info                 : Audio Coding 3
    Commercial name             : Dolby Digital
    Codec ID                    : A_AC3
    Duration                    : 1 h 56 min
    Bit rate mode               : Constant
    Bit rate                    : 640 kb/s
    Channel(s)                  : 6 channels
    Channel layout              : L R C LFE Ls Rs
    Sampling rate               : 48.0 kHz
    Frame rate                  : 31.250 FPS (1536 SPF)
    Compression mode            : Lossy
    Stream size                 : 534 MiB (3%)
    Language                    : English
    Service kind                : Complete Main
    Default                     : No
    Forced                      : No

    Text
    ID                          : 4
    Format                      : PGS
    Muxing mode                 : zlib
    Codec ID                    : S_HDMV/PGS
    Codec ID/Info               : Picture based subtitle format used on BDs/HD-DVDs
    Duration                    : 1 h 56 min
    Bit rate                    : 28.9 kb/s
    Count of elements           : 2296
    Stream size                 : 24.1 MiB (0%)
    Language                    : Spanish
    Default                     : No
    Forced                      : No

  • Peso: 15.7 GiB

Sinopsis

Danny Ocean es un carismático ladrón que, tan sólo 24 horas después de cumplir una larga condena en prisión, ya está planeando su próximo delito. Su objetivo: realizar el mayor atraco de casinos de la historia. Para ello formará un equipo de once hombres, cada uno de ellos el mejor en su campo. Sin embargo surgirá un problema inesperado: el dueño de los locales, Terry Benedic, está saliendo con Tess, su ex-mujer.

Ficha técnica

Video trailer de la película

Enlaces de descarga

Rip de Bluray

Descargar Oceans Eleven (2001) REMUX 1080p Latino – CMHDD


Aportes de DPeliculasHDmega la pass es:dpeliculashdmega.org Aportes de CinemaniaHD la pass es:cinemaniahdd.com
Guardado en : Crimen , Suspenso

Películas relacionadas

  • Mar de sangre (2022) WEB-DL 1080p Latino

    Mar de sangre (2022) WEB-DL 1080p Latino

    2022
    Mar de sangre (2022) WEB-DL 1080p Latino

    1h 27m 2022

    Descargar Mar de sangre (2022) WEB-DL 1080p Latino. Un grupo de amigos que disfrutan de un fin de semana...

    Director: James Nunn

    Género: Acción

    Actores: Thomas Michael Flynn

  • Noche sin paz (2022) PLACEBO Full HD 1080p Latino

    Noche sin paz (2022) PLACEBO Full HD 1080p Latino

    2022
    Noche sin paz (2022) PLACEBO Full HD 1080p Latino

    1h 41m 2022

    Descargar Noche sin paz (2022) PLACEBO Full HD 1080p Latino. Cuando un equipo de mercenarios irrumpe...

    Director: Tyshana Hobson

    Género: Acción

    Actores: Yoon Cha-Lee

  • Noche sin paz (2022) HD 1080p Latino

    Noche sin paz (2022) HD 1080p Latino

    2022
    Noche sin paz (2022) HD 1080p Latino

    1h 41m 2022

    Descargar Noche sin paz (2022) HD 1080p Latino. Cuando un equipo de mercenarios irrumpe en Nochebuena...

    Director: Tyshana Hobson

    Género: Acción

    Actores: Yoon Cha-Lee

  • Noche sin paz (2022) REMUX 1080p Latino

    Noche sin paz (2022) REMUX 1080p Latino

    2022
    Noche sin paz (2022) REMUX 1080p Latino

    1h 41m 2022

    Descargar Noche sin paz (2022) REMUX 1080p Latino. Cuando un equipo de mercenarios irrumpe en Nochebuena...

    Director: Tyshana Hobson

    Género: Acción

    Actores: Yoon Cha-Lee

descargar Oceans Eleven (2001) REMUX 1080p Latino – CMHDD Full 1080p 1080p gratis, Oceans Eleven (2001) REMUX 1080p Latino – CMHDD Full 1080p mega 1 link, Oceans Eleven (2001) REMUX 1080p Latino – CMHDD Full 1080p pelicula completa, descargar Oceans Eleven (2001) REMUX 1080p Latino – CMHDD Full 1080p gratis en mega.

Oceans Eleven (2001) REMUX 1080p Latino – CMHDD pelicula full hd, Oceans Eleven (2001) REMUX 1080p Latino – CMHDD mega latino, Oceans Eleven (2001) REMUX 1080p Latino – CMHDD 4k latino, Oceans Eleven (2001) REMUX 1080p Latino – CMHDD pelicula completa, Oceans Eleven (2001) REMUX 1080p Latino – CMHDD descargar gratis, descargar Oceans Eleven (2001) REMUX 1080p Latino – CMHDD pelicula latino, Oceans Eleven (2001) REMUX 1080p Latino – CMHDD 1 link mega, Oceans Eleven (2001) REMUX 1080p Latino – CMHDD 1 link google drive, Oceans Eleven (2001) REMUX 1080p Latino – CMHDD hd 1080p latino.
Comentarios 0