Observe and Report (2009) REMUX 1080p Latino – CMHDD

14 vistas
1 estrella2 estrellas3 estrellas4 estrellas5 estrellas (Ninguna valoración todavía)
Cargando...

Información de Observe and Report (2009) REMUX 1080p Latino – CMHDD

Datos de la película

  • Calidad: Full 1080p
  • Audio: Español Latino AC3 5.1 BLURAY - Ingles AC3 5.1 BLURAY
  • Subtitulos: Español Latino PGS
  • Resolución: 1920x1080p
  • Formato: MKV
  • Codec: H.264
  • Encoder: Dracarys
  • Mediainfo: Clic para Mostrar Datos Ver
  • Format                      : Matroska
    Format version              : Version 4
    File size                   : 13.8 GiB
    Duration                    : 1 h 26 min
    Overall bit rate mode       : Variable
    Overall bit rate            : 22.9 Mb/s
    Movie name                  : Observe and Report (2009) REMUX 1080p Latino - CMHDD
    Encoded date                : UTC 2021-05-02 04:32:24
    Writing application         : mkvmerge v56.1.0 ('My Friend') 64-bit
    Writing library             : libebml v1.4.2 + libmatroska v1.6.4
    Cover                       : Yes
    Attachments                 : cover.jpg

    Video
    ID                          : 1
    ID in the original source m : 4113 (0x1011)
    Format                      : VC-1
    Format profile              : Advanced@L3
    Codec ID                    : V_MS/VFW/FOURCC / WVC1
    Codec ID/Hint               : Microsoft
    Duration                    : 1 h 26 min
    Bit rate                    : 20.0 Mb/s
    Width                       : 1 920 pixels
    Height                      : 1 080 pixels
    Display aspect ratio        : 16:9
    Frame rate mode             : Constant
    Frame rate                  : 23.976 (24000/1001) FPS
    Color space                 : YUV
    Chroma subsampling          : 4:2:0
    Bit depth                   : 8 bits
    Scan type                   : Progressive
    Compression mode            : Lossy
    Bits/(Pixel*Frame)          : 0.403
    Stream size                 : 12.1 GiB (88%)
    Default                     : Yes
    Forced                      : No
    Original source medium      : Blu-ray

    Audio #1
    ID                          : 2
    ID in the original source m : 4352 (0x1100)
    Format                      : MLP FBA
    Format/Info                 : Meridian Lossless Packing FBA
    Commercial name             : Dolby TrueHD
    Codec ID                    : A_TRUEHD
    Duration                    : 1 h 26 min
    Bit rate mode               : Variable
    Bit rate                    : 1 488 kb/s
    Maximum bit rate            : 3 168 kb/s
    Channel(s)                  : 6 channels
    Channel layout              : L R C LFE Ls Rs
    Sampling rate               : 48.0 kHz
    Frame rate                  : 1 200.000 FPS (40 SPF)
    Compression mode            : Lossless
    Stream size                 : 918 MiB (7%)
    Language                    : English
    Default                     : No
    Forced                      : No
    Original source medium      : Blu-ray

    Audio #2
    ID                          : 3
    ID in the original source m : 4352 (0x1100)
    Format                      : AC-3
    Format/Info                 : Audio Coding 3
    Commercial name             : Dolby Digital
    Codec ID                    : A_AC3
    Duration                    : 1 h 26 min
    Bit rate mode               : Constant
    Bit rate                    : 640 kb/s
    Channel(s)                  : 6 channels
    Channel layout              : L R C LFE Ls Rs
    Sampling rate               : 48.0 kHz
    Frame rate                  : 31.250 FPS (1536 SPF)
    Compression mode            : Lossy
    Stream size                 : 395 MiB (3%)
    Language                    : English
    Service kind                : Complete Main
    Default                     : No
    Forced                      : No
    Original source medium      : Blu-ray

    Audio #3
    ID                          : 4
    ID in the original source m : 4354 (0x1102)
    Format                      : AC-3
    Format/Info                 : Audio Coding 3
    Commercial name             : Dolby Digital
    Codec ID                    : A_AC3
    Duration                    : 1 h 26 min
    Bit rate mode               : Constant
    Bit rate                    : 640 kb/s
    Channel(s)                  : 6 channels
    Channel layout              : L R C LFE Ls Rs
    Sampling rate               : 48.0 kHz
    Frame rate                  : 31.250 FPS (1536 SPF)
    Compression mode            : Lossy
    Stream size                 : 395 MiB (3%)
    Language                    : Spanish
    Service kind                : Complete Main
    Default                     : Yes
    Forced                      : No
    Original source medium      : Blu-ray

    Text #1
    ID                          : 5
    ID in the original source m : 4610 (0x1202)
    Format                      : PGS
    Muxing mode                 : zlib
    Codec ID                    : S_HDMV/PGS
    Codec ID/Info               : Picture based subtitle format used on BDs/HD-DVDs
    Duration                    : 1 h 25 min
    Bit rate                    : 38.0 kb/s
    Count of elements           : 2384
    Stream size                 : 23.2 MiB (0%)
    Language                    : Spanish
    Default                     : No
    Forced                      : No
    Original source medium      : Blu-ray

    Text #2
    ID                          : 6
    ID in the original source m : 4612 (0x1204)
    Format                      : PGS
    Muxing mode                 : zlib
    Codec ID                    : S_HDMV/PGS
    Codec ID/Info               : Picture based subtitle format used on BDs/HD-DVDs
    Duration                    : 51 min 30 s
    Bit rate                    : 246 b/s
    Count of elements           : 14
    Stream size                 : 93.0 KiB (0%)
    Language                    : Spanish
    Default                     : No
    Forced                      : No
    Original source medium      : Blu-ray

    Menu
    00:00:00.000                : Chapter 01
    00:02:49.419                : Chapter 02
    00:06:39.065                : Chapter 03
    00:09:39.203                : Chapter 04
    00:13:03.949                : Chapter 05
    00:18:05.584                : Chapter 06
    00:23:37.874                : Chapter 07
    00:26:43.476                : Chapter 08
    00:32:08.676                : Chapter 09
    00:34:46.125                : Chapter 10
    00:38:32.476                : Chapter 11
    00:40:26.590                : Chapter 12
    00:45:51.582                : Chapter 13
    00:49:24.086                : Chapter 14
    00:53:29.623                : Chapter 15
    00:58:33.384                : Chapter 16
    01:00:22.785                : Chapter 17
    01:03:28.095                : Chapter 18
    01:07:42.308                : Chapter 19
    01:10:33.020                : Chapter 20
    01:14:18.162                : Chapter 21
    01:18:41.425                : Chapter 22
    01:20:28.031                : Chapter 23
    01:22:18.266                : Chapter 24

  • Peso: 13.8 GiB

Sinopsis

En el centro comercial Forest Ridge, el jefe de seguridad Ronnie Barnhard (Seth Rogen) patrulla con puño de acero. Como dueño de su territorio, combate a los maleantes y en algunas ocasiones a los clientes rebeldes mientras sueña con cambiar su linterna por una una pistola. Cuando un exhibicionista comienza a atacar, Ronnie aprovecha la oportunidad para mostrar sus talentos y lograr un lugar en la academia de policía, y el corazón de la chica de sus sueños, Brandi (Anna Faris), la sexy vendedora de mostrador quien nunca le presta atención.

Ficha técnica

Video trailer de la película

Enlaces de descarga

Rip de Bluray

Descargar Observe and Report (2009) REMUX 1080p Latino – CMHDD


Aportes de DPeliculasHDmega la pass es:dpeliculashdmega.org Aportes de CinemaniaHD la pass es:cinemaniahdd.com
Guardado en : Comedia , Crimen , Drama

Películas relacionadas

Observe and Report (2009) REMUX 1080p Latino – CMHDD pelicula full hd, Observe and Report (2009) REMUX 1080p Latino – CMHDD mega latino, Observe and Report (2009) REMUX 1080p Latino – CMHDD 4k latino, Observe and Report (2009) REMUX 1080p Latino – CMHDD pelicula completa, Observe and Report (2009) REMUX 1080p Latino – CMHDD descargar gratis, descargar Observe and Report (2009) REMUX 1080p Latino – CMHDD pelicula latino, Observe and Report (2009) REMUX 1080p Latino – CMHDD 1 link mega, Observe and Report (2009) REMUX 1080p Latino – CMHDD 1 link google drive, Observe and Report (2009) REMUX 1080p Latino – CMHDD hd 1080p latino.
Comentarios 0