Observe and Report (2009) Full HD 1080p Latino – CMHDD

16 vistas
1 estrella2 estrellas3 estrellas4 estrellas5 estrellas (Ninguna valoración todavía)
Cargando...

Información de Observe and Report (2009) Full HD 1080p Latino – CMHDD

Datos de la película

  • Calidad: Full 1080p
  • Audio: Español Latino AC3 5.1 BLURAY - Ingles AC3 5.1 BLURAY
  • Subtitulos: Español Latino PGS
  • Resolución: 1920x1080p
  • Formato: MKV
  • Codec: H.264
  • Encoder: Dracarys
  • Mediainfo: Clic para Mostrar Datos Ver
  • Format                      : Matroska
    Format version              : Version 4
    File size                   : 4.21 GiB
    Duration                    : 1 h 26 min
    Overall bit rate            : 6 990 kb/s
    Movie name                  : Observe and Report (2009) Full HD 1080p Latino - CMHDD
    Encoded date                : UTC 2021-05-02 20:30:55
    Writing application         : mkvmerge v56.1.0 ('My Friend') 64-bit
    Writing library             : libebml v1.4.2 + libmatroska v1.6.4

    Video
    ID                          : 1
    Format                      : AVC
    Format/Info                 : Advanced Video Codec
    Format profile              : High@L4.1
    Format settings             : CABAC / 4 Ref Frames
    Format settings, CABAC      : Yes
    Format settings, Reference  : 4 frames
    Codec ID                    : V_MPEG4/ISO/AVC
    Duration                    : 1 h 26 min
    Bit rate                    : 5 691 kb/s
    Width                       : 1 920 pixels
    Height                      : 1 080 pixels
    Display aspect ratio        : 16:9
    Frame rate mode             : Constant
    Frame rate                  : 23.976 (24000/1001) FPS
    Color space                 : YUV
    Chroma subsampling          : 4:2:0
    Bit depth                   : 8 bits
    Scan type                   : Progressive
    Bits/(Pixel*Frame)          : 0.114
    Stream size                 : 3.43 GiB (81%)
    Writing library             : x264 core 157 r2935 545de2f
    Encoding settings           : cabac=1 / ref=4 / deblock=1:0:0 / analyse=0x3:0x133 / me=tesa / subme=11 / psy=1 / psy_rd=1.00:0.00 / mixed_ref=1 / me_range=24 / chroma_me=1 / trellis=2 / 8x8dct=1 / cqm=0 / deadzone=21,11 / fast_pskip=0 / chroma_qp_offset=-2 / threads=24 / lookahead_threads=6 / sliced_threads=0 / nr=0 / decimate=1 / interlaced=0 / bluray_compat=0 / constrained_intra=0 / bframes=16 / b_pyramid=2 / b_adapt=2 / b_bias=0 / direct=3 / weightb=1 / open_gop=0 / weightp=2 / keyint=240 / keyint_min=24 / scenecut=40 / intra_refresh=0 / rc_lookahead=60 / rc=crf / mbtree=1 / crf=20.0 / qcomp=0.60 / qpmin=0 / qpmax=69 / qpstep=4 / vbv_maxrate=62500 / vbv_bufsize=78125 / crf_max=0.0 / nal_hrd=none / filler=0 / ip_ratio=1.40 / aq=1:1.00
    Default                     : Yes
    Forced                      : No
    Color range                 : Limited
    Color primaries             : BT.709
    Transfer characteristics    : BT.709
    Matrix coefficients         : BT.709

    Audio #1
    ID                          : 2
    Format                      : AC-3
    Format/Info                 : Audio Coding 3
    Commercial name             : Dolby Digital
    Codec ID                    : A_AC3
    Duration                    : 1 h 26 min
    Bit rate mode               : Constant
    Bit rate                    : 640 kb/s
    Channel(s)                  : 6 channels
    Channel layout              : L R C LFE Ls Rs
    Sampling rate               : 48.0 kHz
    Frame rate                  : 31.250 FPS (1536 SPF)
    Compression mode            : Lossy
    Stream size                 : 395 MiB (9%)
    Language                    : Spanish
    Service kind                : Complete Main
    Default                     : Yes
    Forced                      : No

    Audio #2
    ID                          : 3
    Format                      : AC-3
    Format/Info                 : Audio Coding 3
    Commercial name             : Dolby Digital
    Codec ID                    : A_AC3
    Duration                    : 1 h 26 min
    Bit rate mode               : Constant
    Bit rate                    : 640 kb/s
    Channel(s)                  : 6 channels
    Channel layout              : L R C LFE Ls Rs
    Sampling rate               : 48.0 kHz
    Frame rate                  : 31.250 FPS (1536 SPF)
    Compression mode            : Lossy
    Stream size                 : 395 MiB (9%)
    Language                    : English
    Service kind                : Complete Main
    Default                     : No
    Forced                      : No

    Text #1
    ID                          : 4
    Format                      : PGS
    Muxing mode                 : zlib
    Codec ID                    : S_HDMV/PGS
    Codec ID/Info               : Picture based subtitle format used on BDs/HD-DVDs
    Duration                    : 1 h 25 min
    Bit rate                    : 38.0 kb/s
    Count of elements           : 2384
    Stream size                 : 23.2 MiB (1%)
    Language                    : Spanish
    Default                     : No
    Forced                      : No

    Text #2
    ID                          : 5
    Format                      : PGS
    Muxing mode                 : zlib
    Codec ID                    : S_HDMV/PGS
    Codec ID/Info               : Picture based subtitle format used on BDs/HD-DVDs
    Duration                    : 51 min 30 s
    Bit rate                    : 246 b/s
    Count of elements           : 14
    Stream size                 : 93.0 KiB (0%)
    Language                    : Spanish
    Default                     : No
    Forced                      : No

    Menu
    00:00:00.000                : :Chapter 1
    00:02:49.544                : :Chapter 2
    00:06:39.190                : :Chapter 3
    00:09:39.204                : :Chapter 4
    00:13:04.033                : :Chapter 5
    00:18:05.668                : :Chapter 6
    00:23:37.958                : :Chapter 7
    00:26:43.560                : :Chapter 8
    00:32:08.718                : :Chapter 9
    00:34:46.209                : :Chapter 10
    00:38:32.560                : :Chapter 11
    00:40:26.633                : :Chapter 12
    00:45:51.624                : :Chapter 13
    00:49:24.211                : :Chapter 14
    00:53:29.748                : :Chapter 15
    00:58:33.468                : :Chapter 16
    01:00:22.869                : :Chapter 17
    01:03:28.179                : :Chapter 18
    01:07:42.350                : :Chapter 19
    01:10:33.062                : :Chapter 20
    01:14:18.204                : :Chapter 21
    01:18:41.467                : :Chapter 22
    01:20:28.115                : :Chapter 23
    01:22:18.267                : :Chapter 24

  • Peso: 4.21 GiB

Sinopsis

En el centro comercial Forest Ridge, el jefe de seguridad Ronnie Barnhard (Seth Rogen) patrulla con puño de acero. Como dueño de su territorio, combate a los maleantes y en algunas ocasiones a los clientes rebeldes mientras sueña con cambiar su linterna por una una pistola. Cuando un exhibicionista comienza a atacar, Ronnie aprovecha la oportunidad para mostrar sus talentos y lograr un lugar en la academia de policía, y el corazón de la chica de sus sueños, Brandi (Anna Faris), la sexy vendedora de mostrador quien nunca le presta atención.

Ficha técnica

Video trailer de la película

Enlaces de descarga

Rip de Bluray

Descargar Observe and Report (2009) Full HD 1080p Latino – CMHDD




Aportes de DPeliculasHDmega la pass es:dpeliculashdmega.org Aportes de CinemaniaHD la pass es:cinemaniahdd.com
Guardado en : Comedia , Crimen , Drama

Películas relacionadas

Observe and Report (2009) Full HD 1080p Latino – CMHDD pelicula full hd, Observe and Report (2009) Full HD 1080p Latino – CMHDD mega latino, Observe and Report (2009) Full HD 1080p Latino – CMHDD 4k latino, Observe and Report (2009) Full HD 1080p Latino – CMHDD pelicula completa, Observe and Report (2009) Full HD 1080p Latino – CMHDD descargar gratis, descargar Observe and Report (2009) Full HD 1080p Latino – CMHDD pelicula latino, Observe and Report (2009) Full HD 1080p Latino – CMHDD 1 link mega, Observe and Report (2009) Full HD 1080p Latino – CMHDD 1 link google drive, Observe and Report (2009) Full HD 1080p Latino – CMHDD hd 1080p latino.
Comentarios 0