×

¿Problemas para descargar con Mozilla, EDGE? Deshabilita la opción "Abrir vinculos en una pestaña nueva" tal como lo muestra ésta imagen.

Oblivion (2013) REMUX 4K HDR Latino – CMHDD

2.895 vistas

Información de Oblivion (2013) REMUX 4K HDR Latino – CMHDD

Datos de la película

  • Calidad: 4K HDR
  • Audio: Español Latino DTS 5.1 BLURAY - Ingles AC3 5.1
  • Subtitulos: Español Latino SRT- FORZADOS SRT
  • Resolución: 3840x1600p
  • Formato: MKV
  • Codec: H.265
  • Encoder: Dracarys
  • Mediainfo: Clic para Mostrar Datos Ver
  •  

    Format                      : Matroska
    Format version              : Version 4
    File size                   : 53.5 GiB
    Duration                    : 2 h 4 min
    Overall bit rate mode       : Variable
    Overall bit rate            : 61.5 Mb/s
    Movie name                  : Oblivion (2013) REMUX 4K HDR Latino / - CMHDD
    Encoded date                : UTC 2024-06-13 21:28:05
    Writing application         : mkvmerge v47.0.0 ('Black Flag') 64-bit
    Writing library             : libebml v1.3.10 + libmatroska v1.5.2

    Video
    ID                          : 1
    Format                      : HEVC
    Format/Info                 : High Efficiency Video Coding
    Format profile              : Main 10@L5.1@High
    HDR format                  : SMPTE ST 2094 App 4, Version 1, HDR10+ Profile B compatible
    Codec ID                    : V_MPEGH/ISO/HEVC
    Duration                    : 2 h 4 min
    Bit rate                    : 55.1 Mb/s
    Width                       : 3 840 pixels
    Height                      : 2 160 pixels
    Display aspect ratio        : 16:9
    Frame rate mode             : Constant
    Frame rate                  : 23.976 (24000/1001) FPS
    Color space                 : YUV
    Chroma subsampling          : 4:2:0 (Type 2)
    Bit depth                   : 10 bits
    Bits/(Pixel*Frame)          : 0.277
    Stream size                 : 47.9 GiB (90%)
    Writing library             : ATEME Titan KFE 3.7.3 (4.7.3.1003)
    Language                    : English
    Default                     : Yes
    Forced                      : No
    Color range                 : Limited
    Color primaries             : BT.2020
    Transfer characteristics    : PQ
    Matrix coefficients         : BT.2020 non-constant
    Mastering display color pri : Display P3
    Mastering display luminance : min: 0.0050 cd/m2, max: 1000 cd/m2
    Maximum Content Light Level : 1000 cd/m2
    Maximum Frame-Average Light : 400 cd/m2

    Audio #1
    ID                          : 2
    Format                      : AC-3
    Format/Info                 : Audio Coding 3
    Commercial name             : Dolby Digital
    Codec ID                    : A_AC3
    Duration                    : 2 h 4 min
    Bit rate mode               : Constant
    Bit rate                    : 640 kb/s
    Channel(s)                  : 6 channels
    Channel layout              : L R C LFE Ls Rs
    Sampling rate               : 48.0 kHz
    Frame rate                  : 31.250 FPS (1536 SPF)
    Compression mode            : Lossy
    Stream size                 : 571 MiB (1%)
    Language                    : Spanish
    Service kind                : Complete Main
    Default                     : Yes
    Forced                      : Yes

    Audio #2
    ID                          : 3
    ID in the original source m : 4357 (0x1105)
    Format                      : DTS
    Format/Info                 : Digital Theater Systems
    Codec ID                    : A_DTS
    Duration                    : 2 h 4 min
    Bit rate mode               : Constant
    Bit rate                    : 768 kb/s
    Channel(s)                  : 6 channels
    Channel layout              : C L R Ls Rs LFE
    Sampling rate               : 48.0 kHz
    Frame rate                  : 93.750 FPS (512 SPF)
    Bit depth                   : 24 bits
    Compression mode            : Lossy
    Stream size                 : 685 MiB (1%)
    Language                    : Spanish
    Default                     : No
    Forced                      : No
    Original source medium      : Blu-ray

    Audio #3
    ID                          : 4
    Format                      : AC-3
    Format/Info                 : Audio Coding 3
    Commercial name             : Dolby Digital
    Format settings             : Dolby Surround EX
    Codec ID                    : A_AC3
    Duration                    : 2 h 4 min
    Bit rate mode               : Constant
    Bit rate                    : 640 kb/s
    Channel(s)                  : 6 channels
    Channel layout              : L R C LFE Ls Rs
    Sampling rate               : 48.0 kHz
    Frame rate                  : 31.250 FPS (1536 SPF)
    Compression mode            : Lossy
    Stream size                 : 570 MiB (1%)
    Language                    : English
    Service kind                : Complete Main
    Default                     : No
    Forced                      : No

    Audio #4
    ID                          : 5
    Format                      : MLP FBA 16-ch
    Format/Info                 : Meridian Lossless Packing FBA with 16-channel presentation
    Commercial name             : Dolby TrueHD with Dolby Atmos
    Codec ID                    : A_TRUEHD
    Duration                    : 2 h 4 min
    Bit rate mode               : Variable
    Bit rate                    : 4 309 kb/s
    Maximum bit rate            : 7 854 kb/s
    Channel(s)                  : 8 channels
    Channel layout              : L R C LFE Ls Rs Lb Rb
    Sampling rate               : 48.0 kHz
    Frame rate                  : 1 200.000 FPS (40 SPF)
    Compression mode            : Lossless
    Stream size                 : 3.75 GiB (7%)
    Language                    : English
    Default                     : No
    Forced                      : No
    Number of dynamic objects   : 11
    Bed channel count           : 1 channel
    Bed channel configuration   : LFE

    Text #1
    ID                          : 6
    Format                      : UTF-8
    Codec ID                    : S_TEXT/UTF8
    Codec ID/Info               : UTF-8 Plain Text
    Duration                    : 1 h 48 min
    Bit rate                    : 0 b/s
    Count of elements           : 15
    Stream size                 : 160 Bytes (0%)
    Title                       : Forzados
    Language                    : Spanish
    Default                     : Yes
    Forced                      : Yes

    Text #2
    ID                          : 7
    Format                      : UTF-8
    Codec ID                    : S_TEXT/UTF8
    Codec ID/Info               : UTF-8 Plain Text
    Duration                    : 1 h 57 min
    Bit rate                    : 32 b/s
    Count of elements           : 951
    Stream size                 : 27.7 KiB (0%)
    Title                       : Completos
    Language                    : Spanish
    Default                     : No
    Forced                      : No

    Text #3
    ID                          : 8
    ID in the original source m : 4633 (0x1219)
    Format                      : PGS
    Muxing mode                 : zlib
    Codec ID                    : S_HDMV/PGS
    Codec ID/Info               : Picture based subtitle format used on BDs/HD-DVDs
    Duration                    : 1 h 48 min
    Bit rate                    : 172 b/s
    Count of elements           : 30
    Stream size                 : 136 KiB (0%)
    Title                       : Forzados PGS
    Language                    : Spanish
    Default                     : No
    Forced                      : No
    Original source medium      : Blu-ray

    Text #4
    ID                          : 9
    ID in the original source m : 4613 (0x1205)
    Format                      : PGS
    Muxing mode                 : zlib
    Codec ID                    : S_HDMV/PGS
    Codec ID/Info               : Picture based subtitle format used on BDs/HD-DVDs
    Duration                    : 1 h 57 min
    Bit rate                    : 19.6 kb/s
    Count of elements           : 1902
    Stream size                 : 16.5 MiB (0%)
    Title                       : Completos PGS
    Language                    : Spanish
    Default                     : No
    Forced                      : No
    Original source medium      : Blu-ray

    Menu
    00:00:00.000                : en:Chapter 01
    00:04:31.354                : en:Chapter 02
    00:12:51.813                : en:Chapter 03
    00:21:25.284                : en:Chapter 04
    00:27:20.138                : en:Chapter 05
    00:35:30.337                : en:Chapter 06
    00:40:06.779                : en:Chapter 07
    00:46:16.023                : en:Chapter 08
    00:52:22.181                : en:Chapter 09
    01:01:59.716                : en:Chapter 10
    01:07:59.409                : en:Chapter 11
    01:16:25.831                : en:Chapter 12
    01:22:08.173                : en:Chapter 13
    01:25:31.752                : en:Chapter 14
    01:30:22.542                : en:Chapter 15
    01:36:30.368                : en:Chapter 16
    01:40:29.106                : en:Chapter 17
    01:46:27.423                : en:Chapter 18
    01:53:05.320                : en:Chapter 19
    01:58:23.847                : en:Chapter 20

     

  • Peso: 53.5 GiB

Sinopsis

Jack Harper es uno de los últimos técnicos de reparación de drones que permanece en la Tierra. Parte de una operación masiva para extraer recursos vitales después de décadas de guerra contra una amenaza terrorífica conocida como los Scavs, la misión de Jack está casi completada. Su existencia empieza a desmoronarse cuando rescata a una hermosa desconocida de una nave espacial caída. Su llegada desencadena una serie de acontecimientos que le llevan a cuestionarse todo lo conoce y pone el destino de la humanidad en sus manos.

Ficha técnica

Video trailer de la película

Enlaces de descarga

Rip de Bluray

Descargar Oblivion (2013) REMUX 4K HDR Latino – CMHDD




Aportes de DPeliculasHDmega la pass es:dpeliculashdmega.org Aportes de CinemaniaHD la pass es:cinemaniahdd.com Aportes recientes:cinemaniahdd.net

Películas relacionadas

descargar Oblivion (2013) REMUX 4K HDR Latino – CMHDD 4K HDR 1080p gratis, Oblivion (2013) REMUX 4K HDR Latino – CMHDD 4K HDR mega 1 link, Oblivion (2013) REMUX 4K HDR Latino – CMHDD 4K HDR pelicula completa, descargar Oblivion (2013) REMUX 4K HDR Latino – CMHDD 4K HDR gratis en mega.

Oblivion (2013) REMUX 4K HDR Latino – CMHDD pelicula full hd, Oblivion (2013) REMUX 4K HDR Latino – CMHDD mega latino, Oblivion (2013) REMUX 4K HDR Latino – CMHDD 4k latino, Oblivion (2013) REMUX 4K HDR Latino – CMHDD pelicula completa, Oblivion (2013) REMUX 4K HDR Latino – CMHDD descargar gratis, descargar Oblivion (2013) REMUX 4K HDR Latino – CMHDD pelicula latino, Oblivion (2013) REMUX 4K HDR Latino – CMHDD 1 link mega, Oblivion (2013) REMUX 4K HDR Latino – CMHDD 1 link google drive, Oblivion (2013) REMUX 4K HDR Latino – CMHDD hd 1080p latino.
Comentarios 0