×

¿Problemas para descargar con Mozilla, EDGE? Deshabilita la opción "Abrir vinculos en una pestaña nueva" tal como lo muestra ésta imagen.

Obi-Wan Kenobi (2022) Temporada 1 WEB-DL 1080p Latino

4.789 vistas

Información de Obi-Wan Kenobi (2022) Temporada 1 WEB-DL 1080p Latino

Datos de la película

  • Calidad: WEBDL
  • Audio: Se especifica abajo de la Sinopsis
  • Subtitulos: Español Latino SRT - Ingles SRT
  • Resolución: 1920x1080p
  • Formato: MKV
  • Codec: H.264
  • Encoder: CinemaniaHD
  • Mediainfo: Clic para Mostrar Datos Ver
  • Obi-Wan Kenobi S01E01 (2021) D+ Web-DL 1080p Latino.mkv
    Format                      : Matroska
    Format version              : Version 4
    File size                   : 2.82 GiB
    Duration                    : 52 min 28 s
    Overall bit rate mode       : Variable
    Overall bit rate            : 7 706 kb/s
    Movie name                  : CinemaniaHDD.Net
    Encoded date                : UTC 2022-05-27 05:01:34
    Writing application         : mkvmerge v56.1.0 ('My Friend') 64-bit
    Writing library             : libebml v1.4.2 + libmatroska v1.6.4
    Attachments                 : CINEMANIAHD.png

    Video
    ID                          : 1
    Format                      : AVC
    Format/Info                 : Advanced Video Codec
    Format profile              : High@L4
    Format settings             : CABAC / 4 Ref Frames
    Format settings, CABAC      : Yes
    Format settings, Reference  : 4 frames
    Codec ID                    : V_MPEG4/ISO/AVC
    Duration                    : 52 min 28 s
    Bit rate mode               : Variable
    Bit rate                    : 6 679 kb/s
    Maximum bit rate            : 12.7 Mb/s
    Width                       : 1 920 pixels
    Height                      : 1 080 pixels
    Display aspect ratio        : 16:9
    Frame rate mode             : Constant
    Frame rate                  : 24.000 FPS
    Color space                 : YUV
    Chroma subsampling          : 4:2:0
    Bit depth                   : 8 bits
    Scan type                   : Progressive
    Bits/(Pixel*Frame)          : 0.134
    Stream size                 : 2.45 GiB (87%)
    Title                       : WEB HD1080p [CinemaniaHDD]
    Language                    : English
    Default                     : Yes
    Forced                      : No
    Color range                 : Limited
    Color primaries             : BT.709
    Transfer characteristics    : BT.709
    Matrix coefficients         : BT.709

    Audio #1
    ID                          : 2
    Format                      : E-AC-3
    Format/Info                 : Enhanced AC-3
    Commercial name             : Dolby Digital Plus
    Codec ID                    : A_EAC3
    Duration                    : 52 min 28 s
    Bit rate mode               : Constant
    Bit rate                    : 256 kb/s
    Channel(s)                  : 6 channels
    Channel layout              : L R C LFE Ls Rs
    Sampling rate               : 48.0 kHz
    Frame rate                  : 31.250 FPS (1536 SPF)
    Compression mode            : Lossy
    Stream size                 : 96.1 MiB (3%)
    Title                       : Español Latino [CinemaniaHDD]
    Language                    : Spanish
    Service kind                : Complete Main
    Default                     : Yes
    Forced                      : No

    Audio #2
    ID                          : 3
    Format                      : E-AC-3 JOC
    Format/Info                 : Enhanced AC-3 with Joint Object Coding
    Commercial name             : Dolby Digital Plus with Dolby Atmos
    Codec ID                    : A_EAC3
    Duration                    : 52 min 28 s
    Bit rate mode               : Constant
    Bit rate                    : 768 kb/s
    Channel(s)                  : 6 channels
    Channel layout              : L R C LFE Ls Rs
    Sampling rate               : 48.0 kHz
    Frame rate                  : 31.250 FPS (1536 SPF)
    Compression mode            : Lossy
    Stream size                 : 288 MiB (10%)
    Title                       : Ingles [CinemaniaHDD]
    Language                    : English
    Service kind                : Complete Main
    Default                     : No
    Forced                      : No
    Complexity index            : 16
    Number of dynamic objects   : 15
    Bed channel count           : 1 channel
    Bed channel configuration   : LFE

    Text #1
    ID                          : 4
    Format                      : UTF-8
    Codec ID                    : S_TEXT/UTF8
    Codec ID/Info               : UTF-8 Plain Text
    Duration                    : 17 min 41 s
    Bit rate                    : 4 b/s
    Count of elements           : 23
    Stream size                 : 572 Bytes (0%)
    Title                       : Forzados-SRT [CinemaniaHDD]
    Language                    : Spanish
    Default                     : Yes
    Forced                      : No

    Text #2
    ID                          : 5
    Format                      : UTF-8
    Codec ID                    : S_TEXT/UTF8
    Codec ID/Info               : UTF-8 Plain Text
    Duration                    : 52 min 18 s
    Bit rate                    : 34 b/s
    Count of elements           : 502
    Stream size                 : 13.1 KiB (0%)
    Title                       : Español-SRT [CinemaniaHDD]
    Language                    : Spanish
    Default                     : No
    Forced                      : No

    Text #3
    ID                          : 6
    Format                      : UTF-8
    Codec ID                    : S_TEXT/UTF8
    Codec ID/Info               : UTF-8 Plain Text
    Duration                    : 48 min 23 s
    Bit rate                    : 45 b/s
    Count of elements           : 619
    Stream size                 : 16.0 KiB (0%)
    Title                       : Ingles-SRT [CinemaniaHDD]
    Language                    : English
    Default                     : No
    Forced                      : No

  • Peso: 1.9 GiB - 2.9 GiB Aprox. C/U | 13.3 GiB Total.

Sinopsis

Obi-Wan Kenobi (2022) Temporada 1 WEB-DL 1080p Latino. Miniserie de TV basada en la figura de Obi-Wan Kenobi cuya historia comienza 10 años después de los dramáticos eventos de ‘La venganza de los Sith’.

Audio Español Latino EAC3 5.1 D+ – Ingles EAC3 5.1 D+
6/6 Capitulos Disponibles!!

Ficha técnica

Video trailer de la película

Enlaces de descarga

Rip de Bluray

Descargar Obi-Wan Kenobi (2022) Temporada 1 WEB-DL 1080p Latino




Aportes de DPeliculasHDmega la pass es:dpeliculashdmega.org Aportes de CinemaniaHD la pass es:cinemaniahdd.com

Películas relacionadas

descargar Obi-Wan Kenobi (2022) Temporada 1 WEB-DL 1080p Latino WEBDL 1080p gratis, Obi-Wan Kenobi (2022) Temporada 1 WEB-DL 1080p Latino WEBDL mega 1 link, Obi-Wan Kenobi (2022) Temporada 1 WEB-DL 1080p Latino WEBDL serie completa, descargar Obi-Wan Kenobi (2022) Temporada 1 WEB-DL 1080p Latino WEBDL gratis en mega.

Obi-Wan Kenobi (2022) Temporada 1 WEB-DL 1080p Latino pelicula full hd, Obi-Wan Kenobi (2022) Temporada 1 WEB-DL 1080p Latino mega latino, Obi-Wan Kenobi (2022) Temporada 1 WEB-DL 1080p Latino 4k latino, Obi-Wan Kenobi (2022) Temporada 1 WEB-DL 1080p Latino pelicula completa, Obi-Wan Kenobi (2022) Temporada 1 WEB-DL 1080p Latino descargar gratis, descargar Obi-Wan Kenobi (2022) Temporada 1 WEB-DL 1080p Latino pelicula latino, Obi-Wan Kenobi (2022) Temporada 1 WEB-DL 1080p Latino 1 link mega, Obi-Wan Kenobi (2022) Temporada 1 WEB-DL 1080p Latino 1 link google drive, Obi-Wan Kenobi (2022) Temporada 1 WEB-DL 1080p Latino hd 1080p latino.
Comentarios 0