×

¿Problemas para descargar con Mozilla, EDGE? Deshabilita la opción "Abrir vinculos en una pestaña nueva" tal como lo muestra ésta imagen.

Obi-Wan Kenobi (2022) Temporada 1 Web-DL 4K UHD HDR Latino

2.785 vistas

Información de Obi-Wan Kenobi (2022) Temporada 1 Web-DL 4K UHD HDR Latino

Datos de la película

  • Calidad: WEBDL
  • Audio: Se especifica abajo de la Sinopsis
  • Subtitulos: Español Latino SRT - Ingles SRT
  • Resolución: 3840x2160p
  • Formato: MKV
  • Codec: HEVC
  • Encoder: CinemaniaHD
  • Mediainfo: Clic para Mostrar Datos Ver
  • Obi-Wan Kenobi S01E01 (2021) D+ WEB UHD HDR Latino.mkv
    Format                      : Matroska
    Format version              : Version 4
    File size                   : 6.02 GiB
    Duration                    : 52 min 28 s
    Overall bit rate            : 16.4 Mb/s
    Movie name                  : CinemaniaHDD.Net
    Encoded date                : UTC 2022-05-27 05:36:20
    Writing application         : mkvmerge v56.1.0 ('My Friend') 64-bit
    Writing library             : libebml v1.4.2 + libmatroska v1.6.4
    Attachments                 : CINEMANIAHD.png

    Video
    ID                          : 1
    Format                      : HEVC
    Format/Info                 : High Efficiency Video Coding
    Format profile              : Main 10@L5@High
    HDR format                  : SMPTE ST 2086, HDR10 compatible
    Codec ID                    : V_MPEGH/ISO/HEVC
    Duration                    : 52 min 28 s
    Bit rate                    : 15.4 Mb/s
    Width                       : 3 840 pixels
    Height                      : 2 160 pixels
    Display aspect ratio        : 16:9
    Frame rate mode             : Constant
    Frame rate                  : 24.000 FPS
    Color space                 : YUV
    Chroma subsampling          : 4:2:0
    Bit depth                   : 10 bits
    Bits/(Pixel*Frame)          : 0.077
    Stream size                 : 5.65 GiB (94%)
    Title                       : Web 2160p HDR [CinemaniaHDD]
    Language                    : English
    Default                     : Yes
    Forced                      : No
    Color range                 : Limited
    Color primaries             : BT.2020
    Transfer characteristics    : PQ
    Matrix coefficients         : BT.2020 non-constant
    Mastering display color pri : BT.2020
    Mastering display luminance : min: 0.0000 cd/m2, max: 1000 cd/m2

    Audio #1
    ID                          : 2
    Format                      : E-AC-3
    Format/Info                 : Enhanced AC-3
    Commercial name             : Dolby Digital Plus
    Codec ID                    : A_EAC3
    Duration                    : 52 min 28 s
    Bit rate mode               : Constant
    Bit rate                    : 256 kb/s
    Channel(s)                  : 6 channels
    Channel layout              : L R C LFE Ls Rs
    Sampling rate               : 48.0 kHz
    Frame rate                  : 31.250 FPS (1536 SPF)
    Compression mode            : Lossy
    Stream size                 : 96.1 MiB (2%)
    Title                       : Español Latino [CinemaniaHDD]
    Language                    : Spanish
    Service kind                : Complete Main
    Default                     : Yes
    Forced                      : Yes

    Audio #2
    ID                          : 3
    Format                      : E-AC-3 JOC
    Format/Info                 : Enhanced AC-3 with Joint Object Coding
    Commercial name             : Dolby Digital Plus with Dolby Atmos
    Codec ID                    : A_EAC3
    Duration                    : 52 min 28 s
    Bit rate mode               : Constant
    Bit rate                    : 768 kb/s
    Channel(s)                  : 6 channels
    Channel layout              : L R C LFE Ls Rs
    Sampling rate               : 48.0 kHz
    Frame rate                  : 31.250 FPS (1536 SPF)
    Compression mode            : Lossy
    Stream size                 : 288 MiB (5%)
    Title                       : Ingles [CinemaniaHDD]
    Language                    : English
    Service kind                : Complete Main
    Default                     : No
    Forced                      : No
    Complexity index            : 16
    Number of dynamic objects   : 15
    Bed channel count           : 1 channel
    Bed channel configuration   : LFE

    Text #1
    ID                          : 4
    Format                      : UTF-8
    Codec ID                    : S_TEXT/UTF8
    Codec ID/Info               : UTF-8 Plain Text
    Duration                    : 17 min 41 s
    Bit rate                    : 4 b/s
    Count of elements           : 23
    Stream size                 : 572 Bytes (0%)
    Title                       : Forzados-SRT [CinemaniaHDD]
    Language                    : Spanish
    Default                     : Yes
    Forced                      : Yes

    Text #2
    ID                          : 5
    Format                      : UTF-8
    Codec ID                    : S_TEXT/UTF8
    Codec ID/Info               : UTF-8 Plain Text
    Duration                    : 52 min 18 s
    Bit rate                    : 34 b/s
    Count of elements           : 502
    Stream size                 : 13.1 KiB (0%)
    Title                       : Español-SRT [CinemaniaHDD]
    Language                    : Spanish
    Default                     : No
    Forced                      : No

    Text #3
    ID                          : 6
    Format                      : UTF-8
    Codec ID                    : S_TEXT/UTF8
    Codec ID/Info               : UTF-8 Plain Text
    Duration                    : 48 min 23 s
    Bit rate                    : 45 b/s
    Count of elements           : 619
    Stream size                 : 16.0 KiB (0%)
    Title                       : Ingles-SRT [CinemaniaHDD]
    Language                    : English
    Default                     : No
    Forced                      : No

  • Peso: 4.35 GiB - 6.02 GiB Aprox. C/U | 29.6 GiB Total.

Sinopsis

Descargar Obi-Wan Kenobi (2022) Temporada 1 Web-DL 4K UHD HDR Latino. Miniserie de TV basada en la figura de Obi-Wan Kenobi cuya historia comienza 10 años después de los dramáticos eventos de ‘La venganza de los Sith’.

Audio Español Latino EAC3 5.1 D+ – Ingles EAC3 5.1 D+
6/6 Capitulos Disponibles!!

Ficha técnica

Video trailer de la película

Enlaces de descarga

Rip de Bluray

Descargar Obi-Wan Kenobi (2022) Temporada 1 Web-DL 4K UHD HDR Latino




Aportes de DPeliculasHDmega la pass es:dpeliculashdmega.org Aportes de CinemaniaHD la pass es:cinemaniahdd.com

Películas relacionadas

Obi-Wan Kenobi (2022) Temporada 1 Web-DL 4K UHD HDR Latino pelicula full hd, Obi-Wan Kenobi (2022) Temporada 1 Web-DL 4K UHD HDR Latino mega latino, Obi-Wan Kenobi (2022) Temporada 1 Web-DL 4K UHD HDR Latino 4k latino, Obi-Wan Kenobi (2022) Temporada 1 Web-DL 4K UHD HDR Latino pelicula completa, Obi-Wan Kenobi (2022) Temporada 1 Web-DL 4K UHD HDR Latino descargar gratis, descargar Obi-Wan Kenobi (2022) Temporada 1 Web-DL 4K UHD HDR Latino pelicula latino, Obi-Wan Kenobi (2022) Temporada 1 Web-DL 4K UHD HDR Latino 1 link mega, Obi-Wan Kenobi (2022) Temporada 1 Web-DL 4K UHD HDR Latino 1 link google drive, Obi-Wan Kenobi (2022) Temporada 1 Web-DL 4K UHD HDR Latino hd 1080p latino.
Comentarios 0