×

¿Problemas para descargar con Mozilla, EDGE? Deshabilita la opción "Abrir vinculos en una pestaña nueva" tal como lo muestra ésta imagen.

Nuestro Mal (2019) WEB-DL 1080p Subtitulado

1.114 vistas

Información de Nuestro Mal (2019) WEB-DL 1080p Subtitulado

6cde1a3124bf14bbdaad231ba5c4d65d

Datos de la película

  • Calidad: WEBDL
  • Audio: Se especifica abajo de la Sinopsis
  • Subtitulos: Español Latino SRT
  • Resolución: 1920x1080
  • Formato: MKV
  • Codec: H.264
  • Encoder: cinemaniahdd
  • Mediainfo: Clic para Mostrar Datos Ver
  • Nuestro Mal (2017) WEB-DL 1080p Subtitulado.mkv
    Format                      : Matroska
    Format version              : Version 4
    File size                   : 1.80 GiB
    Duration                    : 1 h 32 min
    Overall bit rate mode       : Variable
    Overall bit rate            : 2 782 kb/s
    Movie name                  : Nuestro Mal (2017) WEB-DL 1080p Subtitulado
    Encoded date                : UTC 2019-07-09 00:36:40
    Writing application         : mkvmerge v35.0.0 ('All The Love In The World') 64-bit
    Writing library             : libebml v1.3.9 + libmatroska v1.5.2

    Video
    ID                          : 1
    Format                      : AVC
    Format/Info                 : Advanced Video Codec
    Format profile              : High@L4
    Format settings             : CABAC / 4 Ref Frames
    Format settings, CABAC      : Yes
    Format settings, ReFrames   : 4 frames
    Codec ID                    : V_MPEG4/ISO/AVC
    Duration                    : 1 h 32 min
    Bit rate mode               : Variable
    Bit rate                    : 2 396 kb/s
    Maximum bit rate            : 20.0 Mb/s
    Width                       : 1 920 pixels
    Height                      : 1 080 pixels
    Display aspect ratio        : 16:9
    Frame rate mode             : Constant
    Frame rate                  : 24.000 FPS
    Color space                 : YUV
    Chroma subsampling          : 4:2:0
    Bit depth                   : 8 bits
    Scan type                   : Progressive
    Bits/(Pixel*Frame)          : 0.048
    Stream size                 : 1.55 GiB (86%)
    Title                       : CinemaniaHDD
    Writing library             : x264 core 148 r2715 7e75228
    Encoding settings           : cabac=1 / ref=4 / deblock=1:0:0 / analyse=0x3:0x111 / me=umh / subme=10 / psy=1 / psy_rd=1.00:0.00 / mixed_ref=1 / me_range=120 / chroma_me=1 / trellis=2 / 8x8dct=1 / cqm=0 / deadzone=21,11 / fast_pskip=1 / chroma_qp_offset=-2 / threads=6 / lookahead_threads=1 / sliced_threads=0 / nr=0 / decimate=1 / interlaced=0 / bluray_compat=0 / stitchable=1 / constrained_intra=0 / bframes=16 / b_pyramid=2 / b_adapt=2 / b_bias=0 / direct=3 / weightb=1 / open_gop=0 / weightp=2 / keyint=240 / keyint_min=121 / scenecut=0 / intra_refresh=0 / rc_lookahead=240 / rc=crf / mbtree=1 / crf=16.0 / qcomp=0.50 / qpmin=6 / qpmax=51 / qpstep=4 / vbv_maxrate=20000 / vbv_bufsize=25000 / crf_max=0.0 / nal_hrd=vbr / filler=0 / ip_ratio=1.40 / aq=1:0.80
    Default                     : Yes
    Forced                      : No

    Audio
    ID                          : 2
    Format                      : AC-3
    Format/Info                 : Audio Coding 3
    Commercial name             : Dolby Digital
    Codec ID                    : A_AC3
    Duration                    : 1 h 32 min
    Bit rate mode               : Constant
    Bit rate                    : 384 kb/s
    Channel(s)                  : 6 channels
    Channel layout              : L R C LFE Ls Rs
    Sampling rate               : 48.0 kHz
    Frame rate                  : 31.250 FPS (1536 SPF)
    Bit depth                   : 16 bits
    Compression mode            : Lossy
    Stream size                 : 255 MiB (14%)
    Title                       : Portuguese [CinemaniaHDD]
    Language                    : Portuguese
    Service kind                : Complete Main
    Default                     : Yes
    Forced                      : No

    Text
    ID                          : 3
    Format                      : UTF-8
    Codec ID                    : S_TEXT/UTF8
    Codec ID/Info               : UTF-8 Plain Text
    Duration                    : 1 h 26 min
    Bit rate                    : 21 b/s
    Count of elements           : 501
    Stream size                 : 13.8 KiB (0%)
    Title                       : Español latino [CinemaniaHDD]
    Language                    : Spanish
    Default                     : Yes
    Forced                      : No

  • Peso: 1.80 GiB

Sinopsis

Arthur tiene poderes: puede comunicarse con los espíritus. Uno de estos espectros es su mentor, que le dice que un demonio se dispone a destruir el alma de su hija y que debe tomar medidas drásticas con tal de evitarlo. El padre se sumergirá en la deep web, hasta contratar a un sanguinario asesino en serie para que salve a su hija, desatando a su vez un contundente thriller de terror.

Portuguese AC3 5.1

Ficha técnica

Video trailer de la película

Enlaces de descarga

Rip de Bluray

Descargar Nuestro Mal (2019) WEB-DL 1080p Subtitulado




Aportes de DPeliculasHDmega la pass es:dpeliculashdmega.org Aportes de CinemaniaHD la pass es:cinemaniahdd.com
Guardado en : Drama , Suspenso , Terror

Películas relacionadas

  • Renfield (2023) PLACEBO Full HD 1080p Latino

    Renfield (2023) PLACEBO Full HD 1080p Latino

    2023
    Renfield (2023) PLACEBO Full HD 1080p Latino

    1h 33m 2023

    Descargar Renfield (2023) PLACEBO Full HD 1080p Latino. En este moderno y monstruoso relato sobre el...

    Director: Zack Earl Edwards

    Género: Comedia

    Actores: William Ragsdale

  • Renfield (2023) REMUX 1080p Latino

    Renfield (2023) REMUX 1080p Latino

    2023
    Renfield (2023) REMUX 1080p Latino

    1h 33m 2023

    Descargar Renfield (2023) REMUX 1080p Latino. En este moderno y monstruoso relato sobre el fiel ayudante...

    Director: Zack Earl Edwards

    Género: Comedia

    Actores: William Ragsdale

descargar Nuestro Mal (2019) WEB-DL 1080p Subtitulado WEBDL 1080p gratis, Nuestro Mal (2019) WEB-DL 1080p Subtitulado WEBDL mega 1 link, Nuestro Mal (2019) WEB-DL 1080p Subtitulado WEBDL pelicula completa, descargar Nuestro Mal (2019) WEB-DL 1080p Subtitulado WEBDL gratis en mega.

Nuestro Mal (2019) WEB-DL 1080p Subtitulado pelicula full hd, Nuestro Mal (2019) WEB-DL 1080p Subtitulado mega latino, Nuestro Mal (2019) WEB-DL 1080p Subtitulado 4k latino, Nuestro Mal (2019) WEB-DL 1080p Subtitulado pelicula completa, Nuestro Mal (2019) WEB-DL 1080p Subtitulado descargar gratis, descargar Nuestro Mal (2019) WEB-DL 1080p Subtitulado pelicula latino, Nuestro Mal (2019) WEB-DL 1080p Subtitulado 1 link mega, Nuestro Mal (2019) WEB-DL 1080p Subtitulado 1 link google drive, Nuestro Mal (2019) WEB-DL 1080p Subtitulado hd 1080p latino.
Comentarios 0