Los Ilusionistas (2013) EXTENDED REMUX 1080p Latino

13 vistas
1 estrella2 estrellas3 estrellas4 estrellas5 estrellas (1 votos, promedio: 5,00 de 5)
Cargando...

Información de Los Ilusionistas (2013) EXTENDED REMUX 1080p Latino

Datos de la película

  • Calidad: Full 1080p
  • Audio: Se especifica abajo de la Sinopsis
  • Subtitulos: Español Latino PGS - Ingles PGS
  • Resolución: 1920x1080p
  • Formato: MKV
  • Codec: H.264
  • Encoder: CinefiloCool
  • Mediainfo: Clic para Mostrar Datos Ver
  • Los Ilusionistas (2013) EXTENDED REMUX 1080p Latino-CMHDD.mkv
    Format                      : Matroska
    Format version              : Version 4
    File size                   : 26.2 GiB
    Duration                    : 2 h 4 min
    Overall bit rate mode       : Variable
    Overall bit rate            : 30.1 Mb/s
    Movie name                  : Now You See Me (2013) CinemaniaHDD.Net
    Encoded date                : UTC 2021-01-07 16:57:15
    Writing application         : mkvmerge v51.0.0 ('I Wish') 64-bit
    Writing library             : libebml v1.4.0 + libmatroska v1.6.2
    Attachments                 : CINEMANIAHD.png

    Video
    ID                          : 1
    Format                      : AVC
    Format/Info                 : Advanced Video Codec
    Format profile              : High@L4.1
    Format settings             : CABAC / 4 Ref Frames
    Format settings, CABAC      : Yes
    Format settings, Reference  : 4 frames
    Codec ID                    : V_MPEG4/ISO/AVC
    Duration                    : 2 h 4 min
    Bit rate mode               : Variable
    Bit rate                    : 21.3 Mb/s
    Maximum bit rate            : 37.0 Mb/s
    Width                       : 1 920 pixels
    Height                      : 1 080 pixels
    Display aspect ratio        : 16:9
    Frame rate mode             : Constant
    Frame rate                  : 23.976 (24000/1001) FPS
    Color space                 : YUV
    Chroma subsampling          : 4:2:0
    Bit depth                   : 8 bits
    Scan type                   : Progressive
    Bits/(Pixel*Frame)          : 0.428
    Stream size                 : 18.6 GiB (71%)
    Title                       : REMUX HD1080p [CinemaniaHDD]
    Default                     : Yes
    Forced                      : Yes

    Audio #1
    ID                          : 2
    Format                      : DTS XLL
    Format/Info                 : Digital Theater Systems
    Commercial name             : DTS-HD Master Audio
    Codec ID                    : A_DTS
    Duration                    : 2 h 4 min
    Bit rate mode               : Variable
    Bit rate                    : 2 098 kb/s
    Channel(s)                  : 6 channels
    Channel layout              : C L R Ls Rs LFE
    Sampling rate               : 48.0 kHz
    Frame rate                  : 93.750 FPS (512 SPF)
    Bit depth                   : 16 bits
    Compression mode            : Lossless
    Delay relative to video     : 650 ms
    Stream size                 : 1.83 GiB (7%)
    Title                       : Español Latino [CinemaniaHDD]
    Language                    : Spanish
    Default                     : Yes
    Forced                      : Yes

    Audio #2
    ID                          : 3
    Format                      : DTS XLL
    Format/Info                 : Digital Theater Systems
    Commercial name             : DTS-HD Master Audio
    Codec ID                    : A_DTS
    Duration                    : 2 h 4 min
    Bit rate mode               : Variable
    Bit rate                    : 5 171 kb/s
    Channel(s)                  : 8 channels
    Channel layout              : C L R LFE Lb Rb Lss Rss
    Sampling rate               : 48.0 kHz
    Frame rate                  : 93.750 FPS (512 SPF)
    Bit depth                   : 24 bits
    Compression mode            : Lossless
    Stream size                 : 4.51 GiB (17%)
    Title                       : Ingles [CinemaniaHDD]
    Language                    : English
    Default                     : No
    Forced                      : No

    Audio #3
    ID                          : 4
    Format                      : DTS
    Format/Info                 : Digital Theater Systems
    Codec ID                    : A_DTS
    Duration                    : 2 h 4 min
    Bit rate mode               : Constant
    Bit rate                    : 1 509 kb/s
    Channel(s)                  : 6 channels
    Channel layout              : C L R Ls Rs LFE
    Sampling rate               : 48.0 kHz
    Frame rate                  : 93.750 FPS (512 SPF)
    Bit depth                   : 24 bits
    Compression mode            : Lossy
    Delay relative to video     : 650 ms
    Stream size                 : 1.32 GiB (5%)
    Title                       : Español Latino Core DTS [CinemaniaHDD]
    Language                    : Spanish
    Default                     : No
    Forced                      : No

    Text #1
    ID                          : 5
    Format                      : PGS
    Muxing mode                 : zlib
    Codec ID                    : S_HDMV/PGS
    Codec ID/Info               : Picture based subtitle format used on BDs/HD-DVDs
    Duration                    : 1 h 26 min
    Bit rate                    : 231 b/s
    Count of elements           : 16
    Stream size                 : 147 KiB (0%)
    Title                       : Forzados-PGS [CinemaniaHDD]
    Language                    : Spanish
    Default                     : No
    Forced                      : No

    Text #2
    ID                          : 6
    Format                      : PGS
    Muxing mode                 : zlib
    Codec ID                    : S_HDMV/PGS
    Codec ID/Info               : Picture based subtitle format used on BDs/HD-DVDs
    Duration                    : 1 h 56 min
    Bit rate                    : 44.4 kb/s
    Count of elements           : 3988
    Stream size                 : 37.0 MiB (0%)
    Title                       : Español-PGS [CinemaniaHDD]
    Language                    : Spanish
    Default                     : No
    Forced                      : No

    Text #3
    ID                          : 7
    Format                      : PGS
    Muxing mode                 : zlib
    Codec ID                    : S_HDMV/PGS
    Codec ID/Info               : Picture based subtitle format used on BDs/HD-DVDs
    Duration                    : 1 h 56 min
    Bit rate                    : 47.9 kb/s
    Count of elements           : 4156
    Stream size                 : 39.9 MiB (0%)
    Title                       : Ingles-PGS [CinemaniaHDD]
    Language                    : English
    Default                     : No
    Forced                      : No

    Text #4
    ID                          : 8
    Format                      : UTF-8
    Codec ID                    : S_TEXT/UTF8
    Codec ID/Info               : UTF-8 Plain Text
    Duration                    : 1 h 50 min
    Bit rate                    : 0 b/s
    Count of elements           : 17
    Stream size                 : 322 Bytes (0%)
    Title                       : Forzados-SRT [CinemaniaHDD]
    Language                    : Spanish
    Default                     : Yes
    Forced                      : Yes

    Text #5
    ID                          : 9
    Format                      : UTF-8
    Codec ID                    : S_TEXT/UTF8
    Codec ID/Info               : UTF-8 Plain Text
    Duration                    : 1 h 56 min
    Bit rate                    : 71 b/s
    Count of elements           : 1989
    Stream size                 : 61.0 KiB (0%)
    Title                       : Español-SRT [CinemaniaHDD]
    Language                    : Spanish
    Default                     : No
    Forced                      : No

    Menu
    00:00:00.000                : en:Chapter 1
    00:08:26.548                : en:Chapter 2
    00:14:41.923                : en:Chapter 3
    00:21:25.868                : en:Chapter 4
    00:32:02.003                : en:Chapter 5
    00:39:29.158                : en:Chapter 6
    00:47:07.199                : en:Chapter 7
    00:56:43.441                : en:Chapter 8
    01:04:35.371                : en:Chapter 9
    01:10:23.135                : en:Chapter 10
    01:20:04.549                : en:Chapter 11
    01:29:01.002                : en:Chapter 12
    01:35:22.883                : en:Chapter 13
    01:44:06.281                : en:Chapter 14
    01:45:47.507                : en:Chapter 15
    01:54:24.607                : en:Chapter 16

  • Peso: 26.2 GiB

Sinopsis

Descargar Los Ilusionistas (2013) EXTENDED REMUX 1080p Latino. Un equipo del FBI debe enfrentarse a una banda de criminales expertos en magia. Ellos son ‘los cuatro jinetes’, un grupo formado por los mejores ilusionistas del mundo, dedicado a realizar grandes robos contra hombres de negocios corruptos. Su gran golpe es pasar desapercibidos para hacer llover el dinero robado a su público. En un mundo de magia y espectáculo, nada es lo que parece.

Audio Español Latino DTS-HD + DTS Core 5.1 – Ingles DTS-HD 7.1 bluray

Ficha técnica

Video trailer de la película

Enlaces de descarga

Rip de Bluray

Descargar Los Ilusionistas (2013) EXTENDED REMUX 1080p Latino




Aportes de DPeliculasHDmega la pass es:dpeliculashdmega.org Aportes de CinemaniaHD la pass es:cinemaniahdd.com
Guardado en : Suspenso , Crimen , Remux

Películas relacionadas

  • Come Play (2020) REMUX 1080p Latino

    Come Play (2020) REMUX 1080p Latino

    2020
    Come Play (2020) REMUX 1080p Latino

    0.0 1h 36m 2020

    Descargar Come Play (2020) REMUX 1080p Latino. Un niño problemático y su familia se convierten en el...

    Director: Jacob Chase

    Género: Terror

    Actores: Winslow Fegley

  • Agentes Vanguard (2020) HD 1080p Latino

    Agentes Vanguard (2020) HD 1080p Latino

    2020
    Agentes Vanguard (2020) HD 1080p Latino

    0.0 1h 47m 2020

    Descargar Agentes Vanguard (2020) HD 1080p Latino. La compañía de seguridad encubierta Vanguard es...

    Director: Stanley Tong

    Género: Acción

    Actores: Zhu Zhengting

  • Agentes Vanguard (2020) PLACEBO Full HD 1080p Latino

    Agentes Vanguard (2020) PLACEBO Full HD 1080p Latino

    2020
    Agentes Vanguard (2020) PLACEBO Full HD 1080p Latino

    0.0 1h 47m 2020

    Descargar Agentes Vanguard (2020) PLACEBO Full HD 1080p Latino. La compañía de seguridad encubierta...

    Director: Stanley Tong

    Género: Acción

    Actores: Zhu Zhengting

  • Agentes Vanguard (2020) REMUX 1080p Latino

    Agentes Vanguard (2020) REMUX 1080p Latino

    2020
    Agentes Vanguard (2020) REMUX 1080p Latino

    5.0 1h 47m 2020

    Descargar Agentes Vanguard (2020) REMUX 1080p Latino. La compañía de seguridad encubierta Vanguard...

    Director: Stanley Tong

    Género: Acción

    Actores: Zhu Zhengting

Comentarios 0