Los Ilusionistas (2013) EXTENDED Full HD 1080p Latino

12 vistas
1 estrella2 estrellas3 estrellas4 estrellas5 estrellas (Ninguna valoración todavía)
Cargando...

Información de Los Ilusionistas (2013) EXTENDED Full HD 1080p Latino

Datos de la película

  • Calidad: Full 1080p
  • Audio: Español Latino DTS 5.1 BLURAY - Ingles DTS 5.1 BLURAY
  • Subtitulos: Español Latino PGS - Ingles PGS
  • Resolución: 1920x1080p
  • Formato: MKV
  • Codec: H.264
  • Encoder: CinefiloCool
  • Mediainfo: Clic para Mostrar Datos Ver
  • Los Ilusionistas (2013) EXTENDED Full HD 1080p Latino-CMHDD.mkv
    Format                      : Matroska
    Format version              : Version 4
    File size                   : 9.20 GiB
    Duration                    : 2 h 4 min
    Overall bit rate            : 10.6 Mb/s
    Movie name                  : Now You See Me (2013) CinemaniaHDD.Net
    Encoded date                : UTC 2021-01-07 17:03:59
    Writing application         : mkvmerge v51.0.0 ('I Wish') 64-bit
    Writing library             : libebml v1.4.0 + libmatroska v1.6.2
    Attachments                 : CINEMANIAHD.png

    Video
    ID                          : 1
    Format                      : AVC
    Format/Info                 : Advanced Video Codec
    Format profile              : High@L4.1
    Format settings             : CABAC / 4 Ref Frames
    Format settings, CABAC      : Yes
    Format settings, Reference  : 4 frames
    Codec ID                    : V_MPEG4/ISO/AVC
    Duration                    : 2 h 4 min
    Bit rate                    : 7 511 kb/s
    Width                       : 1 920 pixels
    Height                      : 1 080 pixels
    Display aspect ratio        : 16:9
    Frame rate mode             : Constant
    Frame rate                  : 23.976 (24000/1001) FPS
    Color space                 : YUV
    Chroma subsampling          : 4:2:0
    Bit depth                   : 8 bits
    Scan type                   : Progressive
    Bits/(Pixel*Frame)          : 0.151
    Stream size                 : 6.55 GiB (71%)
    Title                       : Full HD1080p [CinemaniaHDD]
    Writing library             : x264 core 157 r2935 545de2f
    Encoding settings           : cabac=1 / ref=4 / deblock=1:0:0 / analyse=0x3:0x133 / me=tesa / subme=11 / psy=1 / psy_rd=1.00:0.00 / mixed_ref=1 / me_range=24 / chroma_me=1 / trellis=2 / 8x8dct=1 / cqm=0 / deadzone=21,11 / fast_pskip=0 / chroma_qp_offset=-2 / threads=24 / lookahead_threads=6 / sliced_threads=0 / nr=0 / decimate=1 / interlaced=0 / bluray_compat=0 / constrained_intra=0 / bframes=16 / b_pyramid=2 / b_adapt=2 / b_bias=0 / direct=3 / weightb=1 / open_gop=0 / weightp=2 / keyint=240 / keyint_min=24 / scenecut=40 / intra_refresh=0 / rc_lookahead=60 / rc=crf / mbtree=1 / crf=20.0 / qcomp=0.60 / qpmin=0 / qpmax=69 / qpstep=4 / vbv_maxrate=62500 / vbv_bufsize=78125 / crf_max=0.0 / nal_hrd=none / filler=0 / ip_ratio=1.40 / aq=1:1.00
    Default                     : Yes
    Forced                      : Yes
    Color range                 : Limited
    Color primaries             : BT.709
    Transfer characteristics    : BT.709
    Matrix coefficients         : BT.709

    Audio #1
    ID                          : 2
    Format                      : DTS
    Format/Info                 : Digital Theater Systems
    Codec ID                    : A_DTS
    Duration                    : 2 h 4 min
    Bit rate mode               : Constant
    Bit rate                    : 1 509 kb/s
    Channel(s)                  : 6 channels
    Channel layout              : C L R Ls Rs LFE
    Sampling rate               : 48.0 kHz
    Frame rate                  : 93.750 FPS (512 SPF)
    Bit depth                   : 24 bits
    Compression mode            : Lossy
    Delay relative to video     : 650 ms
    Stream size                 : 1.32 GiB (14%)
    Title                       : Español Latino Core DTS [CinemaniaHDD]
    Language                    : Spanish
    Default                     : Yes
    Forced                      : Yes

    Audio #2
    ID                          : 3
    Format                      : DTS
    Format/Info                 : Digital Theater Systems
    Codec ID                    : A_DTS
    Duration                    : 2 h 4 min
    Bit rate mode               : Constant
    Bit rate                    : 1 509 kb/s
    Channel(s)                  : 6 channels
    Channel layout              : C L R Ls Rs LFE
    Sampling rate               : 48.0 kHz
    Frame rate                  : 93.750 FPS (512 SPF)
    Bit depth                   : 24 bits
    Compression mode            : Lossy
    Stream size                 : 1.32 GiB (14%)
    Title                       : Ingles [CinemaniaHDD]
    Language                    : English
    Default                     : No
    Forced                      : No

    Text #1
    ID                          : 4
    Format                      : PGS
    Muxing mode                 : zlib
    Codec ID                    : S_HDMV/PGS
    Codec ID/Info               : Picture based subtitle format used on BDs/HD-DVDs
    Duration                    : 1 h 26 min
    Bit rate                    : 231 b/s
    Count of elements           : 16
    Stream size                 : 147 KiB (0%)
    Title                       : Forzados-PGS [CinemaniaHDD]
    Language                    : Spanish
    Default                     : No
    Forced                      : No

    Text #2
    ID                          : 5
    Format                      : PGS
    Muxing mode                 : zlib
    Codec ID                    : S_HDMV/PGS
    Codec ID/Info               : Picture based subtitle format used on BDs/HD-DVDs
    Duration                    : 1 h 56 min
    Bit rate                    : 44.4 kb/s
    Count of elements           : 3988
    Stream size                 : 37.0 MiB (0%)
    Title                       : Español-PGS [CinemaniaHDD]
    Language                    : Spanish
    Default                     : No
    Forced                      : No

    Text #3
    ID                          : 6
    Format                      : PGS
    Muxing mode                 : zlib
    Codec ID                    : S_HDMV/PGS
    Codec ID/Info               : Picture based subtitle format used on BDs/HD-DVDs
    Duration                    : 1 h 56 min
    Bit rate                    : 47.9 kb/s
    Count of elements           : 4156
    Stream size                 : 39.9 MiB (0%)
    Title                       : Ingles-PGS [CinemaniaHDD]
    Language                    : English
    Default                     : No
    Forced                      : No

    Text #4
    ID                          : 7
    Format                      : UTF-8
    Codec ID                    : S_TEXT/UTF8
    Codec ID/Info               : UTF-8 Plain Text
    Duration                    : 1 h 50 min
    Bit rate                    : 0 b/s
    Count of elements           : 17
    Stream size                 : 322 Bytes (0%)
    Title                       : Forzados-SRT [CinemaniaHDD]
    Language                    : Spanish
    Default                     : Yes
    Forced                      : Yes

    Text #5
    ID                          : 8
    Format                      : UTF-8
    Codec ID                    : S_TEXT/UTF8
    Codec ID/Info               : UTF-8 Plain Text
    Duration                    : 1 h 56 min
    Bit rate                    : 71 b/s
    Count of elements           : 1989
    Stream size                 : 61.0 KiB (0%)
    Title                       : Español-SRT [CinemaniaHDD]
    Language                    : Spanish
    Default                     : No
    Forced                      : No

    Menu
    00:00:00.000                : en:Chapter 1
    00:08:26.548                : en:Chapter 2
    00:14:41.923                : en:Chapter 3
    00:21:25.868                : en:Chapter 4
    00:32:02.003                : en:Chapter 5
    00:39:29.158                : en:Chapter 6
    00:47:07.199                : en:Chapter 7
    00:56:43.441                : en:Chapter 8
    01:04:35.371                : en:Chapter 9
    01:10:23.135                : en:Chapter 10
    01:20:04.549                : en:Chapter 11
    01:29:01.002                : en:Chapter 12
    01:35:22.883                : en:Chapter 13
    01:44:06.281                : en:Chapter 14
    01:45:47.507                : en:Chapter 15
    01:54:24.607                : en:Chapter 16

  • Peso: 9.20 GiB

Sinopsis

Descargar Los Ilusionistas (2013) EXTENDED Full HD 1080p Latino. Un equipo del FBI debe enfrentarse a una banda de criminales expertos en magia. Ellos son ‘los cuatro jinetes’, un grupo formado por los mejores ilusionistas del mundo, dedicado a realizar grandes robos contra hombres de negocios corruptos. Su gran golpe es pasar desapercibidos para hacer llover el dinero robado a su público. En un mundo de magia y espectáculo, nada es lo que parece.

Ficha técnica

Video trailer de la película

Enlaces de descarga

Rip de Bluray

Descargar Los Ilusionistas (2013) EXTENDED Full HD 1080p Latino




Aportes de DPeliculasHDmega la pass es:dpeliculashdmega.org Aportes de CinemaniaHD la pass es:cinemaniahdd.com

Películas relacionadas

  • Agentes Vanguard (2020) HD 1080p Latino

    Agentes Vanguard (2020) HD 1080p Latino

    2020
    Agentes Vanguard (2020) HD 1080p Latino

    0.0 1h 47m 2020

    Descargar Agentes Vanguard (2020) HD 1080p Latino. La compañía de seguridad encubierta Vanguard es...

    Director: Stanley Tong

    Género: Acción

    Actores: Zhu Zhengting

  • Agentes Vanguard (2020) PLACEBO Full HD 1080p Latino

    Agentes Vanguard (2020) PLACEBO Full HD 1080p Latino

    2020
    Agentes Vanguard (2020) PLACEBO Full HD 1080p Latino

    0.0 1h 47m 2020

    Descargar Agentes Vanguard (2020) PLACEBO Full HD 1080p Latino. La compañía de seguridad encubierta...

    Director: Stanley Tong

    Género: Acción

    Actores: Zhu Zhengting

  • Agentes Vanguard (2020) REMUX 1080p Latino

    Agentes Vanguard (2020) REMUX 1080p Latino

    2020
    Agentes Vanguard (2020) REMUX 1080p Latino

    5.0 1h 47m 2020

    Descargar Agentes Vanguard (2020) REMUX 1080p Latino. La compañía de seguridad encubierta Vanguard...

    Director: Stanley Tong

    Género: Acción

    Actores: Zhu Zhengting

  • Escuela de Miedo (2020) PLACEBO Full HD 1080p Latino

    Escuela de Miedo (2020) PLACEBO Full HD 1080p Latino

    2020
    Escuela de Miedo (2020) PLACEBO Full HD 1080p Latino

    0.0 1h 20m 2020

    Descargar Escuela de Miedo (2020) PLACEBO Full HD 1080p Latino. Un inteligente estudiante de secundaria...

    Director: Leopoldo Aguilar

    Género: Animación

    Actores: Ruby Rose

Comentarios 0